Ken Schultz - Искусcтво цифрoвой зеркальной камeры (2014)

Ответить на тему
 
Автор Сообщение

Yulya ®

-Ken Schultz - Искусcтво цифрoвой зеркальной камeры (2014)- Автор (режиссер): Ken Schultz
Жанр: Обучающее видео
Язык: Русский
Продолжительность: 05:00:00
Качество видео: PCRec
Видеокодек: AVC
Битрейт видео: ~29.970 fps, 1179 Kbps
Размер кадра: 1280x720
Аудиокодек: AAC
Битрейт аудио: 44.1 KHz, 2 channels, 152 Kbps
Описание:
Владельцы нoвейшиx DSLR кaмер использyют дaлеко не каждый потенциал их фoтoаппaратов (DSLR — цифровой фoтоаппарaт на базе однoобъективной зеркальнoй камеры. Для большинства использованиe ручных настрoек и вспомогательных установoк — наука сложная и непонятнaя. Как и навыки создания кадров бeз aвтoфокуса и прочих cовременных удобств. Нo добиться совeршенства дозволенo тoлькo полностью oвладев камeрой. Этому и будет вас учить выcoкопрофeссиональный фотограф — Кен Шульц. Болеe 4 часов тренирoвок — и вы поймете, как немногo дo этого вы знали о пpофесcиoнальнoй фотографии.

Дополнительная информация:

Ken - профессиональный фотограф и фото-блогер, владелец известной свадебной фото-студии, автор бестселлера-гида по цифровым фотокамерам “Digital SLR Buyer'sGuide”. На создание каждого нового курса Кен тратит около года работы. В итоге, каждая его работа - материал наивысшего качества, который имеет максимальные рейтинги и считается эталоном преподавательского мастерства по фотографии.

Список уроков:

1.Промо видео
2.Ориентация курса
3.Что собой представляет цифровая зеркальная камера?
4.Основы работы с цифровой зеркальной камерой
5.Композиция
6.Интро и ИСО
7.Апертура
8.Выдержка
9.Основы баланса белого
10.Продвинутая настройка баланса белого
11.Основы фокуса
12.Глубина резкости
13.Основы вспышки
14.Светорассеиватели

MediaInfo:

Общее
Полное имя : H:\графика\фотография\уроки\ВИДЕОКУРСЫ\Уроки по основам ФОТОГРАФИИ\Ken Schultz Искусство цифровой зеркальной камеры\Ken Schultz\01 Промо видео.mp4
Формат : MPEG-4
Профиль формата : Base Media
Идентификатор кодека : isom
Размер файла : 147 Мбайт
Продолжительность : 10 м.
Режим общего битрейта : Переменный
Общий поток : 1902 Кбит/сек
Дата кодирования : UTC 2013-06-17 16:02:23
Дата пометки : UTC 2013-06-17 16:02:23
Программа кодирования : Lavf51.12.1
Видео
Идентификатор : 1
Формат : AVC
Формат/Информация : Advanced Video Codec
Профиль формата : [url=mailto:Baseline@L3.0]Baseline@L3.0[/url]
Параметр CABAC формата : Нет
Параметр ReFrames формата : 1 кадр
Параметр GOP формата : M=1, N=12
Идентификатор кодека : avc1
Идентификатор кодека/Информация : Advanced Video Coding
Продолжительность : 10 м.
Битрейт : 1746 Кбит/сек
Ширина : 640 пикселей
Высота : 360 пикселей
Соотношение сторон : 16:9
Режим частоты кадров : Постоянный
Частота кадров : 29,970 кадров/сек
Цветовое пространство : YUV
Субдискретизация насыщенности : 4:2:0
Битовая глубина : 8 бит
Тип развёртки : Прогрессивная
Бит/(Пиксели*Кадры) : 0.253
Размер потока : 135 Мбайт (92%)
Дата кодирования : UTC 2013-06-17 16:02:23
Дата пометки : UTC 2013-06-17 16:02:23
Аудио
Идентификатор : 2
Формат : AAC
Формат/Информация : Advanced Audio Codec
Профиль формата : LC
Идентификатор кодека : 40
Продолжительность : 10 м.
Вид битрейта : Переменный
Битрейт : 151 Кбит/сек
Каналы : 2 канала
Расположение каналов : Front: L R
Частота : 44,1 КГц
Метод сжатия : С потерями
Размер потока : 11,7 Мбайт (8%)
Дата кодирования : UTC 2013-06-17 16:02:23
Дата пометки : UTC 2013-06-17 16:02:23
Общее
Полное имя : H:\графика\фотография\уроки\ВИДЕОКУРСЫ\Уроки по основам ФОТОГРАФИИ\Ken Schultz Искусство цифровой зеркальной камеры\Ken Schultz\02 Ориентация курса.mp4
Формат : MPEG-4
Профиль формата : Base Media
Идентификатор кодека : isom
Размер файла : 207 Мбайт
Продолжительность : 6 м. 52 с.
Режим общего битрейта : Переменный
Общий поток : 4203 Кбит/сек
Дата кодирования : UTC 2010-12-14 13:20:20
Дата пометки : UTC 2010-12-14 13:20:20
Программа кодирования : Lavf51.12.1
Видео
Идентификатор : 1
Формат : AVC
Формат/Информация : Advanced Video Codec
Профиль формата : [url=mailto:Baseline@L3.1]Baseline@L3.1[/url]
Параметр CABAC формата : Нет
Параметр ReFrames формата : 1 кадр
Параметр GOP формата : M=1, N=12
Идентификатор кодека : avc1
Идентификатор кодека/Информация : Advanced Video Coding
Продолжительность : 6 м. 52 с.
Битрейт : 4047 Кбит/сек
Ширина : 1280 пикселей
Высота : 720 пикселей
Соотношение сторон : 16:9
Режим частоты кадров : Постоянный
Частота кадров : 29,970 кадров/сек
Цветовое пространство : YUV
Субдискретизация насыщенности : 4:2:0
Битовая глубина : 8 бит
Тип развёртки : Прогрессивная
Бит/(Пиксели*Кадры) : 0.147
Размер потока : 199 Мбайт (96%)
Язык : English
Дата кодирования : UTC 2010-12-14 13:20:20
Дата пометки : UTC 2010-12-14 13:20:20
Аудио
Идентификатор : 2
Формат : AAC
Формат/Информация : Advanced Audio Codec
Профиль формата : LC
Идентификатор кодека : 40
Продолжительность : 6 м. 52 с.
Вид битрейта : Переменный
Битрейт : 152 Кбит/сек
Каналы : 2 канала
Расположение каналов : Front: L R
Частота : 44,1 КГц
Метод сжатия : С потерями
Размер потока : 7,47 Мбайт (4%)
Дата кодирования : UTC 2010-12-14 13:20:20
Дата пометки : UTC 2010-12-14 13:20:20
Общее
Полное имя : H:\графика\фотография\уроки\ВИДЕОКУРСЫ\Уроки по основам ФОТОГРАФИИ\Ken Schultz Искусство цифровой зеркальной камеры\Ken Schultz\03 Что собой представляет цифровая зеркальная камера.mp4
Формат : MPEG-4
Профиль формата : Base Media
Идентификатор кодека : isom
Размер файла : 147 Мбайт
Продолжительность : 17 м.
Режим общего битрейта : Переменный
Общий поток : 1180 Кбит/сек
Дата кодирования : UTC 2010-12-08 17:12:55
Дата пометки : UTC 2010-12-08 17:12:55
Программа кодирования : Lavf51.12.1
Видео
Идентификатор : 1
Формат : AVC
Формат/Информация : Advanced Video Codec
Профиль формата : [url=mailto:Baseline@L3.1]Baseline@L3.1[/url]
Параметр CABAC формата : Нет
Параметр ReFrames формата : 1 кадр
Параметр GOP формата : M=1, N=12
Идентификатор кодека : avc1
Идентификатор кодека/Информация : Advanced Video Coding
Продолжительность : 17 м.
Битрейт : 1023 Кбит/сек
Ширина : 1280 пикселей
Высота : 720 пикселей
Соотношение сторон : 16:9
Режим частоты кадров : Постоянный
Частота кадров : 29,970 кадров/сек
Цветовое пространство : YUV
Субдискретизация насыщенности : 4:2:0
Битовая глубина : 8 бит
Тип развёртки : Прогрессивная
Бит/(Пиксели*Кадры) : 0.037
Размер потока : 128 Мбайт (87%)
Дата кодирования : UTC 2010-12-08 17:12:55
Дата пометки : UTC 2010-12-08 17:12:55
Аудио
Идентификатор : 2
Формат : AAC
Формат/Информация : Advanced Audio Codec
Профиль формата : LC
Идентификатор кодека : 40
Продолжительность : 17 м.
Вид битрейта : Переменный
Битрейт : 152 Кбит/сек
Каналы : 2 канала
Расположение каналов : Front: L R
Частота : 44,1 КГц
Метод сжатия : С потерями
Размер потока : 19,0 Мбайт (13%)
Дата кодирования : UTC 2010-12-08 17:12:55
Дата пометки : UTC 2010-12-08 17:12:55
Общее
Полное имя : H:\графика\фотография\уроки\ВИДЕОКУРСЫ\Уроки по основам ФОТОГРАФИИ\Ken Schultz Искусство цифровой зеркальной камеры\Ken Schultz\04 Основы работы с цифровой зеркальной камерой.mp4
Формат : MPEG-4
Профиль формата : Base Media
Идентификатор кодека : isom
Размер файла : 95,9 Мбайт
Продолжительность : 10 м.
Режим общего битрейта : Переменный
Общий поток : 1335 Кбит/сек
Дата кодирования : UTC 2010-12-08 17:48:56
Дата пометки : UTC 2010-12-08 17:48:56
Программа кодирования : Lavf51.12.1
Видео
Идентификатор : 1
Формат : AVC
Формат/Информация : Advanced Video Codec
Профиль формата : [url=mailto:Baseline@L3.1]Baseline@L3.1[/url]
Параметр CABAC формата : Нет
Параметр ReFrames формата : 1 кадр
Параметр GOP формата : M=1, N=12
Идентификатор кодека : avc1
Идентификатор кодека/Информация : Advanced Video Coding
Продолжительность : 10 м.
Битрейт : 1179 Кбит/сек
Ширина : 1280 пикселей
Высота : 720 пикселей
Соотношение сторон : 16:9
Режим частоты кадров : Постоянный
Частота кадров : 29,970 кадров/сек
Цветовое пространство : YUV
Субдискретизация насыщенности : 4:2:0
Битовая глубина : 8 бит
Тип развёртки : Прогрессивная
Бит/(Пиксели*Кадры) : 0.043
Размер потока : 84,6 Мбайт (88%)
Дата кодирования : UTC 2010-12-08 17:48:56
Дата пометки : UTC 2010-12-08 17:48:56
Аудио
Идентификатор : 2
Формат : AAC
Формат/Информация : Advanced Audio Codec
Профиль формата : LC
Идентификатор кодека : 40
Продолжительность : 10 м.
Вид битрейта : Переменный
Битрейт : 152 Кбит/сек
Каналы : 2 канала
Расположение каналов : Front: L R
Частота : 44,1 КГц
Метод сжатия : С потерями
Размер потока : 10,9 Мбайт (11%)
Дата кодирования : UTC 2010-12-08 17:48:56
Дата пометки : UTC 2010-12-08 17:48:56
Общее
Полное имя : H:\графика\фотография\уроки\ВИДЕОКУРСЫ\Уроки по основам ФОТОГРАФИИ\Ken Schultz Искусство цифровой зеркальной камеры\Ken Schultz\05 Композиция.mp4
Формат : MPEG-4
Профиль формата : Base Media
Идентификатор кодека : isom
Размер файла : 372 Мбайт
Продолжительность : 38 м.
Режим общего битрейта : Переменный
Общий поток : 1340 Кбит/сек
Дата кодирования : UTC 2010-12-08 15:50:47
Дата пометки : UTC 2010-12-08 15:50:47
Программа кодирования : Lavf51.12.1
Видео
Идентификатор : 1
Формат : AVC
Формат/Информация : Advanced Video Codec
Профиль формата : [url=mailto:Baseline@L3.1]Baseline@L3.1[/url]
Параметр CABAC формата : Нет
Параметр ReFrames формата : 1 кадр
Параметр GOP формата : M=1, N=12
Идентификатор кодека : avc1
Идентификатор кодека/Информация : Advanced Video Coding
Продолжительность : 38 м.
Битрейт : 1183 Кбит/сек
Ширина : 1280 пикселей
Высота : 720 пикселей
Соотношение сторон : 16:9
Режим частоты кадров : Постоянный
Частота кадров : 29,970 кадров/сек
Цветовое пространство : YUV
Субдискретизация насыщенности : 4:2:0
Битовая глубина : 8 бит
Тип развёртки : Прогрессивная
Бит/(Пиксели*Кадры) : 0.043
Размер потока : 329 Мбайт (88%)
Дата кодирования : UTC 2010-12-08 15:50:47
Дата пометки : UTC 2010-12-08 15:50:47
Аудио
Идентификатор : 2
Формат : AAC
Формат/Информация : Advanced Audio Codec
Профиль формата : LC
Идентификатор кодека : 40
Продолжительность : 38 м.
Вид битрейта : Переменный
Битрейт : 152 Кбит/сек
Каналы : 2 канала
Расположение каналов : Front: L R
Частота : 44,1 КГц
Метод сжатия : С потерями
Размер потока : 42,2 Мбайт (11%)
Дата кодирования : UTC 2010-12-08 15:50:47
Дата пометки : UTC 2010-12-08 15:50:47
Общее
Полное имя : H:\графика\фотография\уроки\ВИДЕОКУРСЫ\Уроки по основам ФОТОГРАФИИ\Ken Schultz Искусство цифровой зеркальной камеры\Ken Schultz\06 ISO.mp4
Формат : MPEG-4
Профиль формата : Base Media
Идентификатор кодека : isom
Размер файла : 192 Мбайт
Продолжительность : 22 м.
Режим общего битрейта : Переменный
Общий поток : 1194 Кбит/сек
Дата кодирования : UTC 2010-12-08 17:12:55
Дата пометки : UTC 2010-12-08 17:12:55
Программа кодирования : Lavf51.12.1
Видео
Идентификатор : 1
Формат : AVC
Формат/Информация : Advanced Video Codec
Профиль формата : [url=mailto:Baseline@L3.1]Baseline@L3.1[/url]
Параметр CABAC формата : Нет
Параметр ReFrames формата : 1 кадр
Параметр GOP формата : M=1, N=12
Идентификатор кодека : avc1
Идентификатор кодека/Информация : Advanced Video Coding
Продолжительность : 22 м.
Битрейт : 1038 Кбит/сек
Ширина : 1280 пикселей
Высота : 720 пикселей
Соотношение сторон : 16:9
Режим частоты кадров : Постоянный
Частота кадров : 29,970 кадров/сек
Цветовое пространство : YUV
Субдискретизация насыщенности : 4:2:0
Битовая глубина : 8 бит
Тип развёртки : Прогрессивная
Бит/(Пиксели*Кадры) : 0.038
Размер потока : 167 Мбайт (87%)
Дата кодирования : UTC 2010-12-08 17:12:55
Дата пометки : UTC 2010-12-08 17:12:55
Аудио
Идентификатор : 2
Формат : AAC
Формат/Информация : Advanced Audio Codec
Профиль формата : LC
Идентификатор кодека : 40
Продолжительность : 22 м.
Вид битрейта : Переменный
Битрейт : 152 Кбит/сек
Каналы : 2 канала
Расположение каналов : Front: L R
Частота : 44,1 КГц
Метод сжатия : С потерями
Размер потока : 24,4 Мбайт (13%)
Дата кодирования : UTC 2010-12-08 17:12:55
Дата пометки : UTC 2010-12-08 17:12:55
Общее
Полное имя : H:\графика\фотография\уроки\ВИДЕОКУРСЫ\Уроки по основам ФОТОГРАФИИ\Ken Schultz Искусство цифровой зеркальной камеры\Ken Schultz\07 Диафрагма.mp4
Формат : MPEG-4
Профиль формата : Base Media
Идентификатор кодека : isom
Размер файла : 87,5 Мбайт
Продолжительность : 9 м. 43 с.
Режим общего битрейта : Переменный
Общий поток : 1258 Кбит/сек
Дата кодирования : UTC 2010-12-08 17:56:02
Дата пометки : UTC 2010-12-08 17:56:02
Программа кодирования : Lavf51.12.1
Видео
Идентификатор : 1
Формат : AVC
Формат/Информация : Advanced Video Codec
Профиль формата : [url=mailto:Baseline@L3.1]Baseline@L3.1[/url]
Параметр CABAC формата : Нет
Параметр ReFrames формата : 1 кадр
Параметр GOP формата : M=1, N=12
Идентификатор кодека : avc1
Идентификатор кодека/Информация : Advanced Video Coding
Продолжительность : 9 м. 43 с.
Битрейт : 1101 Кбит/сек
Ширина : 1280 пикселей
Высота : 720 пикселей
Соотношение сторон : 16:9
Режим частоты кадров : Постоянный
Частота кадров : 29,970 кадров/сек
Цветовое пространство : YUV
Субдискретизация насыщенности : 4:2:0
Битовая глубина : 8 бит
Тип развёртки : Прогрессивная
Бит/(Пиксели*Кадры) : 0.040
Размер потока : 76,6 Мбайт (88%)
Дата кодирования : UTC 2010-12-08 17:56:02
Дата пометки : UTC 2010-12-08 17:56:02
Аудио
Идентификатор : 2
Формат : AAC
Формат/Информация : Advanced Audio Codec
Профиль формата : LC
Идентификатор кодека : 40
Продолжительность : 9 м. 43 с.
Вид битрейта : Переменный
Битрейт : 152 Кбит/сек
Каналы : 2 канала
Расположение каналов : Front: L R
Частота : 44,1 КГц
Метод сжатия : С потерями
Размер потока : 10,6 Мбайт (12%)
Дата кодирования : UTC 2010-12-08 17:56:02
Дата пометки : UTC 2010-12-08 17:56:02
Общее
Полное имя : H:\графика\фотография\уроки\ВИДЕОКУРСЫ\Уроки по основам ФОТОГРАФИИ\Ken Schultz Искусство цифровой зеркальной камеры\Ken Schultz\08 Выдержка.mp4
Формат : MPEG-4
Профиль формата : Base Media
Идентификатор кодека : isom
Размер файла : 409 Мбайт
Продолжительность : 39 м.
Режим общего битрейта : Переменный
Общий поток : 1438 Кбит/сек
Дата кодирования : UTC 2010-12-14 13:20:19
Дата пометки : UTC 2010-12-14 13:20:19
Программа кодирования : Lavf51.12.1
Видео
Идентификатор : 1
Формат : AVC
Формат/Информация : Advanced Video Codec
Профиль формата : [url=mailto:Baseline@L3.1]Baseline@L3.1[/url]
Параметр CABAC формата : Нет
Параметр ReFrames формата : 1 кадр
Параметр GOP формата : M=1, N=12
Идентификатор кодека : avc1
Идентификатор кодека/Информация : Advanced Video Coding
Продолжительность : 39 м.
Битрейт : 1282 Кбит/сек
Ширина : 1280 пикселей
Высота : 720 пикселей
Соотношение сторон : 16:9
Режим частоты кадров : Постоянный
Частота кадров : 29,970 кадров/сек
Цветовое пространство : YUV
Субдискретизация насыщенности : 4:2:0
Битовая глубина : 8 бит
Тип развёртки : Прогрессивная
Бит/(Пиксели*Кадры) : 0.046
Размер потока : 364 Мбайт (89%)
Дата кодирования : UTC 2010-12-14 13:20:19
Дата пометки : UTC 2010-12-14 13:20:19
Аудио
Идентификатор : 2
Формат : AAC
Формат/Информация : Advanced Audio Codec
Профиль формата : LC
Идентификатор кодека : 40
Продолжительность : 39 м.
Вид битрейта : Переменный
Битрейт : 152 Кбит/сек
Каналы : 2 канала
Расположение каналов : Front: L R
Частота : 44,1 КГц
Метод сжатия : С потерями
Размер потока : 43,2 Мбайт (11%)
Дата кодирования : UTC 2010-12-14 13:20:19
Дата пометки : UTC 2010-12-14 13:20:19
Общее
Полное имя : H:\графика\фотография\уроки\ВИДЕОКУРСЫ\Уроки по основам ФОТОГРАФИИ\Ken Schultz Искусство цифровой зеркальной камеры\Ken Schultz\09 Основы баланса белого.mp4
Формат : MPEG-4
Профиль формата : Base Media
Идентификатор кодека : isom
Размер файла : 150 Мбайт
Продолжительность : 16 м.
Режим общего битрейта : Переменный
Общий поток : 1299 Кбит/сек
Дата кодирования : UTC 2010-12-13 18:55:54
Дата пометки : UTC 2010-12-13 18:55:54
Программа кодирования : Lavf51.12.1
Видео
Идентификатор : 1
Формат : AVC
Формат/Информация : Advanced Video Codec
Профиль формата : [url=mailto:Baseline@L3.1]Baseline@L3.1[/url]
Параметр CABAC формата : Нет
Параметр ReFrames формата : 1 кадр
Параметр GOP формата : M=1, N=12
Идентификатор кодека : avc1
Идентификатор кодека/Информация : Advanced Video Coding
Продолжительность : 16 м.
Битрейт : 1142 Кбит/сек
Ширина : 1280 пикселей
Высота : 720 пикселей
Соотношение сторон : 16:9
Режим частоты кадров : Постоянный
Частота кадров : 29,970 кадров/сек
Цветовое пространство : YUV
Субдискретизация насыщенности : 4:2:0
Битовая глубина : 8 бит
Тип развёртки : Прогрессивная
Бит/(Пиксели*Кадры) : 0.041
Размер потока : 132 Мбайт (88%)
Дата кодирования : UTC 2010-12-13 18:55:54
Дата пометки : UTC 2010-12-13 18:55:54
Аудио
Идентификатор : 2
Формат : AAC
Формат/Информация : Advanced Audio Codec
Профиль формата : LC
Идентификатор кодека : 40
Продолжительность : 16 м.
Вид битрейта : Переменный
Битрейт : 152 Кбит/сек
Каналы : 2 канала
Расположение каналов : Front: L R
Частота : 44,1 КГц
Метод сжатия : С потерями
Размер потока : 17,5 Мбайт (12%)
Дата кодирования : UTC 2010-12-13 18:55:54
Дата пометки : UTC 2010-12-13 18:55:54
Общее
Полное имя : H:\графика\фотография\уроки\ВИДЕОКУРСЫ\Уроки по основам ФОТОГРАФИИ\Ken Schultz Искусство цифровой зеркальной камеры\Ken Schultz\10 Настройка баланса белого.mp4
Формат : MPEG-4
Профиль формата : Base Media
Идентификатор кодека : isom
Размер файла : 140 Мбайт
Продолжительность : 16 м.
Режим общего битрейта : Переменный
Общий поток : 1200 Кбит/сек
Дата кодирования : UTC 2010-12-13 10:31:08
Дата пометки : UTC 2010-12-13 10:31:08
Программа кодирования : Lavf51.12.1
Видео
Идентификатор : 1
Формат : AVC
Формат/Информация : Advanced Video Codec
Профиль формата : [url=mailto:Baseline@L3.1]Baseline@L3.1[/url]
Параметр CABAC формата : Нет
Параметр ReFrames формата : 1 кадр
Параметр GOP формата : M=1, N=12
Идентификатор кодека : avc1
Идентификатор кодека/Информация : Advanced Video Coding
Продолжительность : 16 м.
Битрейт : 1044 Кбит/сек
Ширина : 1280 пикселей
Высота : 720 пикселей
Соотношение сторон : 16:9
Режим частоты кадров : Постоянный
Частота кадров : 29,970 кадров/сек
Цветовое пространство : YUV
Субдискретизация насыщенности : 4:2:0
Битовая глубина : 8 бит
Тип развёртки : Прогрессивная
Бит/(Пиксели*Кадры) : 0.038
Размер потока : 122 Мбайт (87%)
Дата кодирования : UTC 2010-12-13 10:31:08
Дата пометки : UTC 2010-12-13 10:31:08
Аудио
Идентификатор : 2
Формат : AAC
Формат/Информация : Advanced Audio Codec
Профиль формата : LC
Идентификатор кодека : 40
Продолжительность : 16 м.
Вид битрейта : Переменный
Битрейт : 152 Кбит/сек
Каналы : 2 канала
Расположение каналов : Front: L R
Частота : 44,1 КГц
Метод сжатия : С потерями
Размер потока : 17,7 Мбайт (13%)
Дата кодирования : UTC 2010-12-13 10:31:08
Дата пометки : UTC 2010-12-13 10:31:08
Общее
Полное имя : H:\графика\фотография\уроки\ВИДЕОКУРСЫ\Уроки по основам ФОТОГРАФИИ\Ken Schultz Искусство цифровой зеркальной камеры\Ken Schultz\11 Основы фокусировки.mp4
Формат : MPEG-4
Профиль формата : Base Media
Идентификатор кодека : isom
Размер файла : 97,7 Мбайт
Продолжительность : 11 м.
Режим общего битрейта : Переменный
Общий поток : 1195 Кбит/сек
Дата кодирования : UTC 2010-12-13 18:55:54
Дата пометки : UTC 2010-12-13 18:55:54
Программа кодирования : Lavf51.12.1
Видео
Идентификатор : 1
Формат : AVC
Формат/Информация : Advanced Video Codec
Профиль формата : [url=mailto:Baseline@L3.1]Baseline@L3.1[/url]
Параметр CABAC формата : Нет
Параметр ReFrames формата : 1 кадр
Параметр GOP формата : M=1, N=12
Идентификатор кодека : avc1
Идентификатор кодека/Информация : Advanced Video Coding
Продолжительность : 11 м.
Битрейт : 1038 Кбит/сек
Ширина : 1280 пикселей
Высота : 720 пикселей
Соотношение сторон : 16:9
Режим частоты кадров : Постоянный
Частота кадров : 29,970 кадров/сек
Цветовое пространство : YUV
Субдискретизация насыщенности : 4:2:0
Битовая глубина : 8 бит
Тип развёртки : Прогрессивная
Бит/(Пиксели*Кадры) : 0.038
Размер потока : 84,8 Мбайт (87%)
Дата кодирования : UTC 2010-12-13 18:55:54
Дата пометки : UTC 2010-12-13 18:55:54
Аудио
Идентификатор : 2
Формат : AAC
Формат/Информация : Advanced Audio Codec
Профиль формата : LC
Идентификатор кодека : 40
Продолжительность : 11 м.
Вид битрейта : Переменный
Битрейт : 152 Кбит/сек
Каналы : 2 канала
Расположение каналов : Front: L R
Частота : 44,1 КГц
Метод сжатия : С потерями
Размер потока : 12,4 Мбайт (13%)
Дата кодирования : UTC 2010-12-13 18:55:54
Дата пометки : UTC 2010-12-13 18:55:54
Общее
Полное имя : H:\графика\фотография\уроки\ВИДЕОКУРСЫ\Уроки по основам ФОТОГРАФИИ\Ken Schultz Искусство цифровой зеркальной камеры\Ken Schultz\12 ГРИП.mp4
Формат : MPEG-4
Профиль формата : Base Media
Идентификатор кодека : isom
Размер файла : 149 Мбайт
Продолжительность : 12 м.
Режим общего битрейта : Переменный
Общий поток : 1660 Кбит/сек
Дата кодирования : UTC 2010-12-13 16:02:31
Дата пометки : UTC 2010-12-13 16:02:31
Программа кодирования : Lavf51.12.1
Видео
Идентификатор : 1
Формат : AVC
Формат/Информация : Advanced Video Codec
Профиль формата : [url=mailto:Baseline@L3.1]Baseline@L3.1[/url]
Параметр CABAC формата : Нет
Параметр ReFrames формата : 1 кадр
Параметр GOP формата : M=1, N=12
Идентификатор кодека : avc1
Идентификатор кодека/Информация : Advanced Video Coding
Продолжительность : 12 м.
Битрейт : 1503 Кбит/сек
Ширина : 1280 пикселей
Высота : 720 пикселей
Соотношение сторон : 16:9
Режим частоты кадров : Постоянный
Частота кадров : 29,970 кадров/сек
Цветовое пространство : YUV
Субдискретизация насыщенности : 4:2:0
Битовая глубина : 8 бит
Тип развёртки : Прогрессивная
Бит/(Пиксели*Кадры) : 0.054
Размер потока : 135 Мбайт (91%)
Дата кодирования : UTC 2010-12-13 16:02:31
Дата пометки : UTC 2010-12-13 16:02:31
Аудио
Идентификатор : 2
Формат : AAC
Формат/Информация : Advanced Audio Codec
Профиль формата : LC
Идентификатор кодека : 40
Продолжительность : 12 м.
Вид битрейта : Переменный
Битрейт : 152 Кбит/сек
Каналы : 2 канала
Расположение каналов : Front: L R
Частота : 44,1 КГц
Метод сжатия : С потерями
Размер потока : 13,6 Мбайт (9%)
Дата кодирования : UTC 2010-12-13 16:02:31
Дата пометки : UTC 2010-12-13 16:02:31
Общее
Полное имя : H:\графика\фотография\уроки\ВИДЕОКУРСЫ\Уроки по основам ФОТОГРАФИИ\Ken Schultz Искусство цифровой зеркальной камеры\Ken Schultz\13 Вспышка.mp4
Формат : MPEG-4
Профиль формата : Base Media
Идентификатор кодека : isom
Размер файла : 227 Мбайт
Продолжительность : 26 м.
Режим общего битрейта : Переменный
Общий поток : 1177 Кбит/сек
Дата кодирования : UTC 2010-12-13 16:02:31
Дата пометки : UTC 2010-12-13 16:02:31
Программа кодирования : Lavf51.12.1
Видео
Идентификатор : 1
Формат : AVC
Формат/Информация : Advanced Video Codec
Профиль формата : [url=mailto:Baseline@L3.1]Baseline@L3.1[/url]
Параметр CABAC формата : Нет
Параметр ReFrames формата : 1 кадр
Параметр GOP формата : M=1, N=12
Идентификатор кодека : avc1
Идентификатор кодека/Информация : Advanced Video Coding
Продолжительность : 26 м.
Битрейт : 1020 Кбит/сек
Ширина : 1280 пикселей
Высота : 720 пикселей
Соотношение сторон : 16:9
Режим частоты кадров : Постоянный
Частота кадров : 29,970 кадров/сек
Цветовое пространство : YUV
Субдискретизация насыщенности : 4:2:0
Битовая глубина : 8 бит
Тип развёртки : Прогрессивная
Бит/(Пиксели*Кадры) : 0.037
Размер потока : 197 Мбайт (87%)
Дата кодирования : UTC 2010-12-13 16:02:31
Дата пометки : UTC 2010-12-13 16:02:31
Аудио
Идентификатор : 2
Формат : AAC
Формат/Информация : Advanced Audio Codec
Профиль формата : LC
Идентификатор кодека : 40
Продолжительность : 26 м.
Вид битрейта : Переменный
Битрейт : 152 Кбит/сек
Каналы : 2 канала
Расположение каналов : Front: L R
Частота : 44,1 КГц
Метод сжатия : С потерями
Размер потока : 29,3 Мбайт (13%)
Дата кодирования : UTC 2010-12-13 16:02:31
Дата пометки : UTC 2010-12-13 16:02:31
Общее
Полное имя : H:\графика\фотография\уроки\ВИДЕОКУРСЫ\Уроки по основам ФОТОГРАФИИ\Ken Schultz Искусство цифровой зеркальной камеры\Ken Schultz\14 Насадки на вспышку.mp4
Формат : MPEG-4
Профиль формата : Base Media
Идентификатор кодека : isom
Размер файла : 140 Мбайт
Продолжительность : 15 м.
Режим общего битрейта : Переменный
Общий поток : 1226 Кбит/сек
Дата кодирования : UTC 2010-12-13 17:36:31
Дата пометки : UTC 2010-12-13 17:36:31
Программа кодирования : Lavf51.12.1
Видео
Идентификатор : 1
Формат : AVC
Формат/Информация : Advanced Video Codec
Профиль формата : [url=mailto:Baseline@L3.1]Baseline@L3.1[/url]
Параметр CABAC формата : Нет
Параметр ReFrames формата : 1 кадр
Параметр GOP формата : M=1, N=12
Идентификатор кодека : avc1
Идентификатор кодека/Информация : Advanced Video Coding
Продолжительность : 15 м.
Битрейт : 1070 Кбит/сек
Ширина : 1280 пикселей
Высота : 720 пикселей
Соотношение сторон : 16:9
Режим частоты кадров : Постоянный
Частота кадров : 29,970 кадров/сек
Цветовое пространство : YUV
Субдискретизация насыщенности : 4:2:0
Битовая глубина : 8 бит
Тип развёртки : Прогрессивная
Бит/(Пиксели*Кадры) : 0.039
Размер потока : 122 Мбайт (87%)
Дата кодирования : UTC 2010-12-13 17:36:31
Дата пометки : UTC 2010-12-13 17:36:31
Аудио
Идентификатор : 2
Формат : AAC
Формат/Информация : Advanced Audio Codec
Профиль формата : LC
Идентификатор кодека : 40
Продолжительность : 15 м.
Вид битрейта : Переменный
Битрейт : 152 Кбит/сек
Каналы : 2 канала
Расположение каналов : Front: L R
Частота : 44,1 КГц
Метод сжатия : С потерями
Размер потока : 17,3 Мбайт (12%)
Дата кодирования : UTC 2010-12-13 17:36:31
Дата пометки : UTC 2010-12-13 17:36:31
Общее
Полное имя : H:\графика\фотография\уроки\ВИДЕОКУРСЫ\Уроки по основам ФОТОГРАФИИ\Ken Schultz Искусство цифровой зеркальной камеры\Ken Schultz\iso\04_essentials.pdf
Размер файла : 67,5 Кбайт
Общее
Полное имя : H:\графика\фотография\уроки\ВИДЕОКУРСЫ\Уроки по основам ФОТОГРАФИИ\Ken Schultz Искусство цифровой зеркальной камеры\Ken Schultz\iso\06_Canon60DISOtestf16.jpg
Формат : JPEG
Размер файла : 1,41 Мбайт
Изображения
Формат : JPEG
Ширина : 2280 пикселей
Высота : 1080 пикселей
Цветовое пространство : YUV
Субдискретизация насыщенности : 4:4:4
Битовая глубина : 8 бит
Метод сжатия : С потерями
Размер потока : 1,41 Мбайт (100%)
Общее
Полное имя : H:\графика\фотография\уроки\ВИДЕОКУРСЫ\Уроки по основам ФОТОГРАФИИ\Ken Schultz Искусство цифровой зеркальной камеры\Ken Schultz\iso\06_Canon60DISOtestScene.jpg
Формат : JPEG
Размер файла : 1,76 Мбайт
Изображения
Формат : JPEG
Ширина : 5184 пикселя
Высота : 3456 пикселей
Цветовое пространство : YUV
Субдискретизация насыщенности : 4:4:4
Битовая глубина : 8 бит
Метод сжатия : С потерями
Размер потока : 1,76 Мбайт (100%)
Общее
Полное имя : H:\графика\фотография\уроки\ВИДЕОКУРСЫ\Уроки по основам ФОТОГРАФИИ\Ken Schultz Искусство цифровой зеркальной камеры\Ken Schultz\iso\07_aperture.jpg
Формат : JPEG
Размер файла : 216 Кбайт
Изображения
Формат : JPEG
Ширина : 1280 пикселей
Высота : 720 пикселей
Цветовое пространство : YUV
Субдискретизация насыщенности : 4:4:4
Битовая глубина : 8 бит
Метод сжатия : С потерями
Размер потока : 216 Кбайт (100%)
Скриншоты:
Скачать .torrent

Для того, чтобы скачать торрент-файл

Ken Schultz - Искусcтво цифрoвой зеркальной камeры (2014)

с нашего сайта, Вам необходимо Войти на сайт под своим логином! Если у Вас ещё нет логина, тогда Вам нужно сначала Зарегистрироваться!

Как скачивать? · Что такое торрент? · Рейтинг и ограничения

Показать сообщения:    
Ответить на тему

Ken Schultz - Искусcтво цифрoвой зеркальной камeры (2014) скачать торрент (torrent), видеоуроки, тренинги, обучающее видео и видеокурсы

Текущее время: Сегодня 20:40

Часовой пояс: GMT + 4



Вы не можете начинать темы
Вы не можете отвечать на сообщения
Вы не можете редактировать свои сообщения
Вы не можете удалять свои сообщения
Вы не можете голосовать в опросах
Вы не можете прикреплять файлы к сообщениям
Вы не можете скачивать файлы