Дмитрий Ларионов - Adobe Premire Pro CC 2014. Продвинутый Уровень (2014)

Ответить на тему
 
Автор Сообщение

Yulya ®

-Дмитрий Ларионов - Adobe Premire Pro CC 2014. Продвинутый Уровень (2014)- Автор (режиссер): Дмитрий Ларионов
Жанр: Обучающие видео-уроки
Продолжительность: 13:28:08
Качество видео: PCRec
Видеокодек: AVC, ProRes
Битрейт видео: ~227 - 46 000 kb/s
Размер кадра: 1200x700, 1280x720
Аудиокодек: AAC, PCM
Битрейт аудио: 51,8 - 768 kb/s, 2 Ch
Доп. материалы: Есть
Описание:
Это онлайн курс Дмитрия Ларионова, являющийся продолжением базового курса монтажа в Adobe Premiere Pro CC 2014 и обращен к подготовленной аудитории с опытом работы в Premiere или другой монтажной программе.
На курсе вы продолжите "шлифовать" свои профессиональные навыки, такие как мультикамерный монтаж, маскирование нежелательных элементов в кадре, интеграцию с After Effects, подготовку проекта к архивированию и сдаче заказчику. Помимо этого, курс затронет аспекты цветокоррекции отснятого материала, особенности настройки программы. Также, особое внимание в процессе обучения будет уделено работе с видео- и аудиоэффектами.
По итогам курса, вы сможете выполнять проекты любой сложности, в частности, будете уметь “выравнивать” цвет и звук на всем протяжении видеоролика, а также научитесь использовать большее количество полезных инструментов из пакета Adobe Creative Cloud на практике.
Для успешного прохождения курса потребуется Adobe Premiere Pro СС, версия не ниже 8.0 (CC-2014). Помимо Premiere Pro для некоторых занятий понадобятся: Adobe After Effects, Adobe SpeedGrade, Adobe Prelude, Adobe Media Encoder, Adobe Photoshop. Поэтому, фактически, курс сочетает в себе сразу несколько "мини-курсов": основной блок по Premiere плюс несколько вводных блоков по сопутствующим программам.

Чему вы научитесь:

Монтировать кадры снятые с нескольких точек одновременно.
Работать с текстом в Premiere и в AfterEffects.
Работать с векторными объектами (маски).
Вычищать звуковую дорожку от шума.
Подгонять кадры по цвету с помощью Three-Way Color Corrector.
“Читать” приборы Waveform и Vectorscope.
Создавать полиэкраны.
Стабилизировать трясущуюся камеру.
Применять один эффект на несоклько клипов.
Экспортировать монтаж для передачи в сторонние программы.

Программа курса:

ЗАНЯТИЕ 1.
Быстрый обзор интерфейса
Стартовый экран.
Создание проекта.
Простой импорт медиа.
Базовая терминология.
Многокамерный монтаж
Варианты синхронизации камер.
Переключение камер.
Выбор источника звука.
Коррекция синхронизации.
Финализация мультикамеры.
Монтаж для немонтажеров
Обзор Adobe Prelude
ЗАНЯТИЕ 2.
Титры
Расположение текста вдоль кривой.
Работа с векторными объектами.
Интеграция с Photoshop.
Интеграция с After Effects.
Анимация
Ключевые кадры
Режимы интерполяции ключевых кадров.
Создание пресетов анимации.
Настройки Premiere Pro
Синхронизанция настроек.
Консолидация проекта
Использование окна Project Manager.
Удаление неиспользованных клипов.
Оффлайновые медиа
Поиск потеряных медиа-файлов.
Принудительная потеря файлов.
Перепривязка.
ЗАНЯТИЕ 3.
Аудиоэффекты
Повышение и понижение уровня.
Динамические эффекты (компрессор, noise gate).
Эффекты на клипе и на треке.
Устранение шипения.
Видеоэффекты
Применение эффектов к нескольким клипам одновременно.
Создание пресетов.
Стабилизация кадра.
Устранение дефекта Rolling Shutter.
Режимы наложения слоев.
Создание полиэкрана.
Трекинг масок.
ЗАНЯТИЕ 4.
Оценка изображения
Приборы Waveform, Vectorscope.
Цветокоррекция в Premiere Pro
Эффекты для работы с цветом.
Three-Way Color Corrector.
Инструменты Curves.
Video Limiter.
Контроль качества
Эффект Broadcast Safe.
Ограничение уровня звучания.
Обнаружение черных полей в секвенции.
ЗАНЯТИЕ 5.
Цветокоррекция в SpeedGrade
Отправка секвенции в SpeedGrade.
Особенности SpeedGrade.
Технология Lumetri.
Обмен секвенциями с Premiere
Частные случаи с эффектами.
ЗАНЯТИЕ 6.
Экспорт медиа-файлов
Форматы файлов.
Кодеки и контейнеры.
Авто-выгрузка на FTP.
Экспорт для YouTube и Vimeo.
Детальные настройки экспорта
Настройки качества экспорта.
Детальный обзор эффектов при экспорте.
Очередь экспорта
Назначение очереди.
Работа с Adobe Media Encoder.
Экспорт в промежуточные форматы
Список монтажных решений (EDL).
Виды EDL.
Экспорт для цветокоррекции.
Экспорт для озвучания.

О преподавателе:

Дмитрий Ларионов — кино-монтажер, преподаватель монтажа и сертифицированный тренер по всем ведущим монтажным системам от компаний Apple, Adobe, Avid и Grass Valley.
Закончил ВГИК (режиссура монтажа кино), работает монтажером с 2007 года. За это время смонтировал семь полнометражных картин (две из них в США), а также несколько документальных и короткометражных проектов. Но как преподаватель, Дмитрий особо ценим учащимися за то, что всегда общается с ними на равных, как с коллегами. Кроме того, Дмитрий — один из самых отзывчивых преподавателей, к которому учащиеся часто обращаются за советом спустя многие годы после прохождения обучения.

MediaInfo:

Код:
Общее
Полное имя                               : C:\Ларионов Д. - Adobe Premire Pro. Продвинутый Уровень - 2014\Занятие 1\1.mp4
Формат                                   : MPEG-4
Профиль формата                          : Base Media / Version 2
Идентификатор кодека                     : mp42
Размер файла                             : 260 Мбайт
Продолжительность                        : 2 ч. 8 м.
Общий поток                              : 282 Кбит/сек
Дата кодирования                         : UTC 2014-10-17 10:47:51
Дата пометки                             : UTC 2014-10-17 10:47:51
Видео
Идентификатор                            : 1
Формат                                   : AVC
Формат/Информация                        : Advanced Video Codec
Профиль формата                          : [url=mailto:High@L4.0]High@L4.0[/url]
Параметр CABAC формата                   : Да
Параметр ReFrames формата                : 4 кадра
Параметр GOP формата                     : M=1, N=75
Идентификатор кодека                     : avc1
Идентификатор кодека/Информация          : Advanced Video Coding
Продолжительность                        : 2 ч. 8 м.
Продолжительность оригинала              : 2 ч. 8 м.
Битрейт                                  : 227 Кбит/сек
Ширина                                   : 1200 пикселей
Высота                                   : 700 пикселей
Соотношение сторон                       : 1,714
Режим частоты кадров                     : Постоянный
Частота кадров                           : 15,000 кадров/сек
Цветовое пространство                    : YUV
Субдискретизация насыщенности            : 4:2:0
Битовая глубина                          : 8 бит
Тип развёртки                            : Прогрессивная
Бит/(Пиксели*Кадры)                      : 0.018
Размер потока                            : 209 Мбайт (80%)
Размер потока оригинала                  : 209 Мбайт (80%)
Язык                                     : English
Дата кодирования                         : UTC 2014-10-17 10:47:51
Дата пометки                             : UTC 2014-10-17 10:47:51
Основные цвета                           : BT.709
Характеристики трансфера                 : BT.709
Коэффициенты матрицы                     : BT.709
mdhd_Duration                            : 7737647
Аудио
Идентификатор                            : 2
Формат                                   : AAC
Формат/Информация                        : Advanced Audio Codec
Профиль формата                          : LC
Идентификатор кодека                     : 40
Продолжительность                        : 2 ч. 8 м.
Продолжительность оригинала              : 2 ч. 8 м.
Вид битрейта                             : Постоянный
Битрейт                                  : 53,2 Кбит/сек
Каналы                                   : 2 канала
Расположение каналов                     : Front: L R
Частота                                  : 44,1 КГц
Метод сжатия                             : С потерями
Размер потока                            : 49,2 Мбайт (19%)
Размер потока оригинала                  : 49,2 Мбайт (19%)
Язык                                     : English
Дата кодирования                         : UTC 2014-10-17 10:47:51
Дата пометки                             : UTC 2014-10-17 10:47:51
mdhd_Duration                            : 7756009
Код:
Общее
Полное имя                               : C:\Ларионов Д. - Adobe Premire Pro. Продвинутый Уровень - 2014\Занятие 2\материалы\ppro L2 media lesson 2\overexposed.mov
Формат                                   : MPEG-4
Профиль формата                          : QuickTime
Идентификатор кодека                     : qt
Размер файла                             : 9,59 Мбайт
Продолжительность                        : 2 с. 44 мс.
Режим общего битрейта                    : Переменный
Общий поток                              : 39,4 Мбит/сек
Дата кодирования                         : UTC 2013-08-02 22:53:39
Дата пометки                             : UTC 2013-08-02 22:59:10
Библиотека кодирования                   : Apple QuickTime
Media/UUID                               : C7FE40DC-3F83-43FB-B510-76D488DBFDDD
©TIM                                     : 00:00:00:00
Видео
Идентификатор                            : 3
Формат                                   : ProRes
Версия формата                           : Version 0
Профиль формата                          : LT
Идентификатор кодека                     : apcs
Продолжительность                        : 2 с. 44 мс.
Вид битрейта                             : Переменный
Битрейт                                  : 39,3 Мбит/сек
Ширина                                   : 1280 пикселей
Высота                                   : 720 пикселей
Соотношение сторон                       : 16:9
Режим частоты кадров                     : Постоянный
Частота кадров                           : 23,976 кадра/сек
Цветовое пространство                    : YUV
Субдискретизация насыщенности            : 4:2:2
Тип развёртки                            : Прогрессивная
Бит/(Пиксели*Кадры)                      : 1.780
Размер потока                            : 9,58 Мбайт (100%)
Библиотека кодирования                   : Apple
Язык                                     : English
Дата кодирования                         : UTC 2013-08-02 22:58:45
Дата пометки                             : UTC 2013-08-02 22:58:45
Основные цвета                           : BT.709
Характеристики трансфера                 : BT.709
Коэффициенты матрицы                     : BT.709
Прочее
Идентификатор                            : 2
Тип                                      : Time code
Формат                                   : QuickTime TC
Продолжительность                        : 2 с. 44 мс.
Временной код первого кадра              : 00:01:00:00
Параметры временного кода                : Striped
Язык                                     : English
Дата кодирования                         : UTC 2013-08-02 22:53:46
Дата пометки                             : UTC 2013-08-02 22:59:10
Скриншоты:
Скачать .torrent

Для того, чтобы скачать торрент-файл

Дмитрий Ларионов - Adobe Premire Pro CC 2014. Продвинутый Уровень (2014)

с нашего сайта, Вам необходимо Войти на сайт под своим логином! Если у Вас ещё нет логина, тогда Вам нужно сначала Зарегистрироваться!

Как скачивать? · Что такое торрент? · Рейтинг и ограничения

turboroll

О!!!

LaaLaN

Посмотрим что и как. Спасибо кто залил раздачу.

Ksharin

О, Круто!
Учился по его базовому курсу!
Отлично рассказывает, показывает и практические задания интересные!
Показать сообщения:    
Ответить на тему

Дмитрий Ларионов - Adobe Premire Pro CC 2014. Продвинутый Уровень (2014) скачать торрент (torrent), видеоуроки, тренинги, обучающее видео и видеокурсы

Текущее время: Сегодня 16:43

Часовой пояс: GMT + 4



Вы не можете начинать темы
Вы не можете отвечать на сообщения
Вы не можете редактировать свои сообщения
Вы не можете удалять свои сообщения
Вы не можете голосовать в опросах
Вы не можете прикреплять файлы к сообщениям
Вы не можете скачивать файлы