Специалист - Google - Universal Analytics и Яндекс Метрика (2014)

Ответить на тему
 
Автор Сообщение

Yulya ®

-Специалист - Google - Universal Analytics и Яндекс Метрика (2014)- Автор (режиссер): Специалист
Преподаватель: Яков Михайлович Васин
Жанр: Обучающие видео-уроки
Продолжительность: 15:41:31
Качество видео: PCRec
Видеокодек: AVC
Битрейт видео: ~94,2 - 122 kb/s
Размер кадра: 960x720
Аудиокодек: AAC
Битрейт аудио: 126 kb/s, 2 Ch
Описание:
В данном курсе рассматриваются системы отслеживания Google Analytics и Яндекс.Метрика, которые являются, пожалуй, самыми мощными и невероятно гибкими средствами анализа работы веб-сайта, и именно поэтому большинство крупных и известных веб-ресурсов используют именно Google Analytics и Яндекс.Метрика.
Данный курс не просто рассказывает о возможностях Google Analytics и Яндекс.Метрика, но, прежде всего, дает слушателям навыки использования этих средств и правильной интерпретации обширных отчетов Google Analytics. Кроме того, в курсе уделено много внимания интеграции Google Analytics с сайтами, чтобы получить максимально широкую аналитическую информацию о работе сайта.
Особенностью курса является упор на интерпретацию и использование отчетов Google Analytics и Яндекс.Метрика, а не просто рассмотрение возможностей систем.
Кроме того в курсе рассматриваются тонкие аспекты интеграции Google Analytics с сайтами электронной коммерции, учет продаж и построение отчетности возврата инвестиций.

По окончании курса Вы будете уметь:

Настраивать и использовать аккаунты Google Analytics
Интегрировать Google Analytics и Яндекс.Метрика с сайтом
Интерпретировать и использовать аналитические отчеты
Оценивать эффективность рекламных компаний и SEO-оптимизации
Пользоваться инструментами оценки эффективности использования сайта

Программа курса:

Модуль 1. Аналитика эффективности работы сайта
Для чего нужна аналитика?
Способы анализа работы сайта
Обзор популярных трекеров:
Google Analytics
Яндекс.Метрика
Критерии эффективности работы сайта
Конверсия и показатели конверсии
Целевые страницы и связь с конверсией
Практическая работа: выбор целей сайта
Регистрация и установка Google Analytics:
Создание аккаунта Google
Добавление сайта
Настройка аккаунта и сайта
Настройка целевых страниц
Управление пользователями
Регистрация и настройка Яндекс.Метрики:
Создание аккаунта Яндекс.Метрики
Добавление сайта
Настройка аккаунта и сайта
Настройка целевых страниц
Управление пользователями
Установка кода отслеживания на сайт
Проверка статуса отслеживания
Практическая работа: установка кода отслеживания на сайт
Модуль 2. Анализ аудитории сайта
Посетители, география, технические возможности
Отчеты по посетителям: оценка текущей аудитории сайта
Формирование произвольных отчетов
Формирование отчетов в различных видах
Демографическая и половозрастная структура аудитории
Практическая работа: формирование отчета по городам посетителей
Работа с расширенными сегментами
Формирование произвольных сегментов и фильтров
Практическая работа: формирование сегмента по выбранным правилам
Модуль 3. Анализ источников трафика
Анализ основных источников трафика
Анализ конверсии переходов
Анализ поисковых систем и ключевых слов
Анализ эффективности SEO-продвижения
Метки в URL. Почему следует использовать UTM-метки
Инструмент «Компоновщик URL»
Практическая работа: Создание меток для учета эффективности ссылок и рекламы
Модуль 4. Анализ эффективности содержания сайта и достижения целей
Анализ содержания сайтов
Выявление предпочтений пользователей
Интеграция с поисковыми системами
Цели и конверсия
Проверки правильности выбранных целей
Формирование целей по произвольным параметрам
Практическая работа: Использование и интеграция с поисковыми системами
Анализ ссылок и дизайна
Карты ссылок и карты кликов
WebVisor
Практическая работа: Настройка Яндекс.Метрики на использование WebVisor
Модуль 5. Анализ эффективности продаж на сайте
Переключение аккаунта на режим электронной коммерции
Способы учета транзакций на сайте
Код отслеживания транзакций
Способы встраивания кода отслеживания транзакций на сайт
Практическая работа: Встраивание кода отслеживания транзакций
Анализ транзакций на сайте
Методы оценки эффективности рекламы и переходов
ROI: Возврат инвестиций, методики оценки
Практическая работа: Оценка эффективности рекламной компании
Модуль 6. Дополнительные возможности: отслеживание событий, фильтры
Назначение и использование фильтров
Фильтрация входящего трафика
Использование разных профилей для отслеживания с фильтрами
Практическая работа: Создание дополнительного профиля
Пользовательские фильтры
Отслеживание событий, назначение и использование
Код отслеживания событий
Интеграция событий с возможностями сайта
Практическая работа: Интеграция кода отслеживания событий
Подведение итогов

О преподавателе:

Васин Яков Михайлович.
Преподаватель-практик, настоящий мастер интернет-маркетинга с огромным опытом работы. Его занятия наполнены яркими примерами из собственной практики. Целью занятий ставит не только полное усвоение слушателями программы, но и приобретение устойчивых навыков практической работы. Охотно делится опытом, секретами мастерства, дает слушателям профессиональные консультации по изучаемым темам.
Сертифицированный специалист Яндекс.Директ и Google Analytics. Работал в крупных телекоммуникационных компаниях и интернет-магазинах. Отличное знание и понимание функционирования онлайн-бизнеса, включая веб-аналитику, электронную коммерцию, онлайновый маркетинг, методов определение круга потенциальных потребителей, составления портрета целевой аудитории, анализа конкурентов, навыки работы с контекстной, баннерной рекламой, понимание принципов веб-дизайна. Опыт организации и проведения рекламных компаний в Интернет.
Разработчик портала МТС-Поиск. Имеет опыт управления проектами и проектными группами. Руководил разработкой проектов на CMS Битрикс (Bitrix), создавал сайты на Drupal, WordPress, Joomla, SMForum, phpBB. Имеет опыт установки, настройки и обслуживания веб-окружений на базе Linux (CentOS, Ubuntu, Fedora).
Статусы:
СЕРТИФИЦИРОВАННЫЙ СПЕЦИАЛИСТ GOOGLE ADWORDS ADVANCED
СЕРТИФИЦИРОВАННЫЙ ИНСТРУКТОР GOOGLE ADWORDS PROFESSIONAL
СЕРТИФИЦИРОВАННЫЙ СПЕЦИАЛИСТ GOOGLE ANALYTICS
СЕРТИФИЦИРОВАННЫЙ СПЕЦИАЛИСТ СО СТАТУСОМ ЯНДЕКС.ЭКСПЕРТ
СЕРТИФИЦИРОВАННЫЙ ПРЕПОДАВАТЕЛЬ 1С BITRIX
MCT - MICROSOFT CERTIFIED TRAINER
EXIN AGILE SCRUM FOUNDATION

MediaInfo:

Код:
Общее
Полное имя                               : C:\[Специалист] Google - Universal Analytics и Яндекс Метрика - 2014\1 День.mp4
Формат                                   : MPEG-4
Профиль формата                          : Base Media / Version 2
Идентификатор кодека                     : mp42
Размер файла                             : 232 Мбайт
Продолжительность                        : 2 ч. 25 м.
Режим общего битрейта                    : Переменный
Общий поток                              : 223 Кбит/сек
Дата кодирования                         : UTC 2014-10-16 21:22:40
Дата пометки                             : UTC 2014-10-16 21:22:40
Видео
Идентификатор                            : 1
Формат                                   : AVC
Формат/Информация                        : Advanced Video Codec
Профиль формата                          : [url=mailto:Main@L3.1]Main@L3.1[/url]
Параметр CABAC формата                   : Да
Параметр ReFrames формата                : 3 кадра
Идентификатор кодека                     : avc1
Идентификатор кодека/Информация          : Advanced Video Coding
Продолжительность                        : 2 ч. 25 м.
Битрейт                                  : 94,2 Кбит/сек
Ширина                                   : 960 пикселей
Высота                                   : 720 пикселей
Соотношение сторон                       : 4:3
Режим частоты кадров                     : Постоянный
Частота кадров                           : 30,000 кадров/сек
Стандарт вещания                         : NTSC
Цветовое пространство                    : YUV
Субдискретизация насыщенности            : 4:2:0
Битовая глубина                          : 8 бит
Тип развёртки                            : Прогрессивная
Бит/(Пиксели*Кадры)                      : 0.005
Размер потока                            : 98,0 Мбайт (42%)
Язык                                     : English
Дата кодирования                         : UTC 2014-10-16 21:22:40
Дата пометки                             : UTC 2014-10-16 21:22:40
Аудио
Идентификатор                            : 2
Формат                                   : AAC
Формат/Информация                        : Advanced Audio Codec
Профиль формата                          : LC
Идентификатор кодека                     : 40
Продолжительность                        : 2 ч. 25 м.
Вид битрейта                             : Переменный
Битрейт                                  : 126 Кбит/сек
Максимальный битрейт                     : 332 Кбит/сек
Каналы                                   : 2 канала
Расположение каналов                     : Front: L R
Частота                                  : 44,1 КГц
Метод сжатия                             : С потерями
Размер потока                            : 131 Мбайт (56%)
Язык                                     : English
Дата кодирования                         : UTC 2014-10-16 21:22:40
Дата пометки                             : UTC 2014-10-16 21:22:40
Код:
Общее
Полное имя                               : C:\[Специалист] Google - Universal Analytics и Яндекс Метрика - 2014\4 День.mp4
Формат                                   : MPEG-4
Профиль формата                          : Base Media / Version 2
Идентификатор кодека                     : mp42
Размер файла                             : 286 Мбайт
Продолжительность                        : 2 ч. 40 м.
Режим общего битрейта                    : Переменный
Общий поток                              : 250 Кбит/сек
Дата кодирования                         : UTC 2014-10-17 15:19:01
Дата пометки                             : UTC 2014-10-17 15:19:01
Видео
Идентификатор                            : 1
Формат                                   : AVC
Формат/Информация                        : Advanced Video Codec
Профиль формата                          : [url=mailto:Main@L3.1]Main@L3.1[/url]
Параметр CABAC формата                   : Да
Параметр ReFrames формата                : 3 кадра
Идентификатор кодека                     : avc1
Идентификатор кодека/Информация          : Advanced Video Coding
Продолжительность                        : 2 ч. 40 м.
Битрейт                                  : 122 Кбит/сек
Ширина                                   : 960 пикселей
Высота                                   : 720 пикселей
Соотношение сторон                       : 4:3
Режим частоты кадров                     : Постоянный
Частота кадров                           : 30,000 кадров/сек
Стандарт вещания                         : NTSC
Цветовое пространство                    : YUV
Субдискретизация насыщенности            : 4:2:0
Битовая глубина                          : 8 бит
Тип развёртки                            : Прогрессивная
Бит/(Пиксели*Кадры)                      : 0.006
Размер потока                            : 139 Мбайт (49%)
Язык                                     : English
Дата кодирования                         : UTC 2014-10-17 15:19:01
Дата пометки                             : UTC 2014-10-17 15:19:01
Аудио
Идентификатор                            : 2
Формат                                   : AAC
Формат/Информация                        : Advanced Audio Codec
Профиль формата                          : LC
Идентификатор кодека                     : 40
Продолжительность                        : 2 ч. 40 м.
Вид битрейта                             : Переменный
Битрейт                                  : 126 Кбит/сек
Максимальный битрейт                     : 295 Кбит/сек
Каналы                                   : 2 канала
Расположение каналов                     : Front: L R
Частота                                  : 44,1 КГц
Метод сжатия                             : С потерями
Размер потока                            : 144 Мбайт (50%)
Язык                                     : English
Дата кодирования                         : UTC 2014-10-17 15:19:01
Дата пометки                             : UTC 2014-10-17 15:19:01
Скриншоты:
Скачать .torrent

Для того, чтобы скачать торрент-файл

Специалист - Google - Universal Analytics и Яндекс Метрика (2014)

с нашего сайта, Вам необходимо Войти на сайт под своим логином! Если у Вас ещё нет логина, тогда Вам нужно сначала Зарегистрироваться!

Как скачивать? · Что такое торрент? · Рейтинг и ограничения

Показать сообщения:    
Ответить на тему

Специалист - Google - Universal Analytics и Яндекс Метрика (2014) скачать торрент (torrent), видеоуроки, тренинги, обучающее видео и видеокурсы

Текущее время: Сегодня 03:58

Часовой пояс: GMT + 4



Вы не можете начинать темы
Вы не можете отвечать на сообщения
Вы не можете редактировать свои сообщения
Вы не можете удалять свои сообщения
Вы не можете голосовать в опросах
Вы не можете прикреплять файлы к сообщениям
Вы не можете скачивать файлы