Дмитрий Гусев - Курс по обработке фото (2014)

Ответить на тему
 
Автор Сообщение

Yulya ®

-Дмитрий Гусев | Курс по обработке фото (2014) WEBRip [H.264/720p-LQ]- Автор (режиссер): Дмитрий Гусев
Жанр: Обучающее видео
Продолжительность: 02:24:25
Качество видео: WEBRip
Видеокодек: AVC (H.264)
Битрейт видео: ~3 704
Размер кадра: 1280*720
Аудиокодек: AAC
Битрейт аудио: 110kbps
Описание:
Что вы получите от курса:
-Вы научитесь быстро и красиво обрабатывать фотографии.
-За 5 минут делать чистую картинку без сложных многоуровневых инструментов в фотошопе.
-Вы поймете как нужно обрабатывать. У Вас не будет возникать вопрос что же сделать еще, вы будете просто знать, что делать дальше, а не просто будете повторять чужую обработку или использовать пресеты.
-Объем, акценты, цвет, ретушь - без многочасовой работы в фотошопе.
-Чистый цвет, коммерческий цвет, чб
-Вы получите удобный и логичный алгоритм обработки.
Что вы НЕ получите:
-Как ничего не делая получать крутые фотографии.
-Как не думая думать и многое другое.

MediaInfo:

General
Complete name : G:\Video_G\Дмитрий Гусев - Обработка фото (2014)\1.коммерческая обработка.mp4
Format : MPEG-4
Codec ID : M4V
File size : 980 MiB
Duration : 35mn 51s
Overall bit rate mode : Variable
Overall bit rate : 3 821 Kbps
Encoded date : UTC 2014-03-14 09:52:03
Tagged date : UTC 2014-03-14 09:52:03
Video
ID : 2
Format : AVC
Format/Info : Advanced Video Codec
Format profile : [url=mailto:Baseline@L3.1]Baseline@L3.1[/url]
Format settings, CABAC : No
Format settings, ReFrames : 3 frames
Format settings, GOP : M=1, N=24
Codec ID : avc1
Codec ID/Info : Advanced Video Coding
Duration : 35mn 51s
Bit rate : 3 704 Kbps
Width : 1 280 pixels
Height : 720 pixels
Display aspect ratio : 16:9
Frame rate mode : Constant
Frame rate : 30.000 fps
Standard : NTSC
Color space : YUV
Chroma subsampling : 4:2:0
Bit depth : 8 bits
Scan type : Progressive
Bits/(Pixel*Frame) : 0.134
Stream size : 950 MiB (97%)
Language : English
Encoded date : UTC 2014-03-14 09:52:05
Tagged date : UTC 2014-03-14 09:52:05
Audio
ID : 1
Format : AAC
Format/Info : Advanced Audio Codec
Format profile : LC
Codec ID : 40
Duration : 35mn 51s
Source duration : 35mn 51s
Bit rate mode : Variable
Bit rate : 110 Kbps
Maximum bit rate : 212 Kbps
Channel count : 2 channels
Channel positions : Front: L R
Sampling rate : 44.1 KHz
Compression mode : Lossy
Stream size : 28.3 MiB (3%)
Source stream size : 28.3 MiB (3%)
Language : English
Encoded date : UTC 2014-03-14 09:52:05
Tagged date : UTC 2014-03-14 09:52:05
General
Complete name : G:\Video_G\Дмитрий Гусев - Курс по обработке фото (2014)\2.натур. цвета.mp4
Format : MPEG-4
Codec ID : M4V
File size : 2.18 GiB
Duration : 1h 23mn
Overall bit rate mode : Variable
Overall bit rate : 3 759 Kbps
Encoded date : UTC 2014-03-18 08:32:54
Tagged date : UTC 2014-03-18 08:32:54
Video
ID : 1
Format : AVC
Format/Info : Advanced Video Codec
Format profile : [url=mailto:Baseline@L3.1]Baseline@L3.1[/url]
Format settings, CABAC : No
Format settings, ReFrames : 3 frames
Format settings, GOP : M=1, N=24
Codec ID : avc1
Codec ID/Info : Advanced Video Coding
Duration : 1h 23mn
Bit rate : 3 641 Kbps
Width : 1 280 pixels
Height : 720 pixels
Display aspect ratio : 16:9
Frame rate mode : Constant
Frame rate : 30.000 fps
Standard : NTSC
Color space : YUV
Chroma subsampling : 4:2:0
Bit depth : 8 bits
Scan type : Progressive
Bits/(Pixel*Frame) : 0.132
Stream size : 2.11 GiB (97%)
Language : English
Encoded date : UTC 2014-03-18 08:33:02
Tagged date : UTC 2014-03-18 08:33:02
Audio
ID : 2
Format : AAC
Format/Info : Advanced Audio Codec
Format profile : LC
Codec ID : 40
Duration : 1h 23mn
Source duration : 1h 23mn
Bit rate mode : Variable
Nominal bit rate : 110 Kbps
Maximum bit rate : 216 Kbps
Channel count : 2 channels
Channel positions : Front: L R
Sampling rate : 44.1 KHz
Compression mode : Lossy
Source stream size : 65.7 MiB (3%)
Language : English
Encoded date : UTC 2014-03-18 08:33:02
Tagged date : UTC 2014-03-18 08:33:02
General
Complete name : G:\Video_G\Дмитрий Гусев - Курс по обработке фото (2014)\3. чб обработка.mp4
Format : MPEG-4
Codec ID : M4V
File size : 734 MiB
Duration : 25mn 25s
Overall bit rate mode : Variable
Overall bit rate : 4 034 Kbps
Encoded date : UTC 2014-03-14 10:40:19
Tagged date : UTC 2014-03-14 10:40:19
Video
ID : 2
Format : AVC
Format/Info : Advanced Video Codec
Format profile : [url=mailto:Baseline@L3.1]Baseline@L3.1[/url]
Format settings, CABAC : No
Format settings, ReFrames : 3 frames
Format settings, GOP : M=1, N=24
Codec ID : avc1
Codec ID/Info : Advanced Video Coding
Duration : 25mn 25s
Bit rate : 3 917 Kbps
Width : 1 280 pixels
Height : 720 pixels
Display aspect ratio : 16:9
Frame rate mode : Constant
Frame rate : 30.000 fps
Standard : NTSC
Color space : YUV
Chroma subsampling : 4:2:0
Bit depth : 8 bits
Scan type : Progressive
Bits/(Pixel*Frame) : 0.142
Stream size : 712 MiB (97%)
Language : English
Encoded date : UTC 2014-03-14 10:40:23
Tagged date : UTC 2014-03-14 10:40:23
Audio
ID : 1
Format : AAC
Format/Info : Advanced Audio Codec
Format profile : LC
Codec ID : 40
Duration : 25mn 25s
Source duration : 25mn 25s
Bit rate mode : Variable
Bit rate : 110 Kbps
Maximum bit rate : 198 Kbps
Channel count : 2 channels
Channel positions : Front: L R
Sampling rate : 44.1 KHz
Compression mode : Lossy
Stream size : 20.1 MiB (3%)
Source stream size : 20.1 MiB (3%)
Language : English
Encoded date : UTC 2014-03-14 10:40:23
Tagged date : UTC 2014-03-14 10:40:23
Скриншоты:
Скачать .torrent

Для того, чтобы скачать торрент-файл

Дмитрий Гусев - Курс по обработке фото (2014)

с нашего сайта, Вам необходимо Войти на сайт под своим логином! Если у Вас ещё нет логина, тогда Вам нужно сначала Зарегистрироваться!

Как скачивать? · Что такое торрент? · Рейтинг и ограничения

Показать сообщения:    
Ответить на тему

Дмитрий Гусев - Курс по обработке фото (2014) скачать торрент (torrent), видеоуроки, тренинги, обучающее видео и видеокурсы

Текущее время: Сегодня 10:57

Часовой пояс: GMT + 4



Вы не можете начинать темы
Вы не можете отвечать на сообщения
Вы не можете редактировать свои сообщения
Вы не можете удалять свои сообщения
Вы не можете голосовать в опросах
Вы не можете прикреплять файлы к сообщениям
Вы не можете скачивать файлы