Profileschool - Теория монтажа (2014)

Ответить на тему
 
Автор Сообщение

Yulya ®

-Profileschool - Теория монтажа (2014)- Автор (режиссер): "profileschool"
Жанр: Обучающий курс
Преподаватель: Дмитрий Ларионов
Продолжительность: 16:57:25
Качество видео: PCRec
Видеокодек: AVC
Битрейт видео: 23.976-25fps, 869-2910Kbps
Размер кадра: 1912x1020, 708x528
Аудиокодек: MP2, AAC
Битрейт аудио: 48000Hz mono 128-317kkbps
Доп. материалы: Имеются
Описание:
Это фундаментальный курс по теории монтажа, который закладывает основы для освоения новой профессии. Вне зависимости от наличия у вас опыта по монтированию простых или сложных видео, для осмысленной и качественной работы вам необходимо понимание логики процесса. После курса люди часто говорят, что теперь фильмы и сериалы для них воспринимаются по-другому.
Мы создавали этот курс для монтажеров, операторов, режиссеров, продюсеров, других участников съемочно-монтажного процесса и тех, кто хочет расширить свой кругозор и научиться воспринимать видеопродукт с позиции профессионала. Благодаря простой структуре и легкой манере подачи, курс предельно прост и понятен людям с разным уровнем подготовки, и даже людям вообще без подготовки.
Курс рассчитан на максимально широкую аудиторию, от начинающих монтажеров, до опытных профессионалов, смонтировавших не один проект. Кроме того, курс будет полезен людям смежных специальностей — операторам, режиссерам, продюсерам, и другим участникам съемочно-монтажного процесса. Также, знания, полученные в курсе, будут интересны людям не связанным с монтажом, но желающим расширить свой кругозор.

Дополнительная информация:

Чему вы научитесь?
Находить выход из тупиковых ситуаций, возникающих на практике в монтаже.
Разбирать «на запчасти» сцены из фильмов и приемы, использованные в них.
Оценивать «монтируемость» сцены даже до начала съемок.
Планировать интересные монтажные приемы еще на этапе раскадровки.
Составлять грамотные комментарии к монтажу в процессе внесения правок.
Анализировать монтажные ходы и понимать принципы их работы.
Наслаждаться красотой монтажа в любых фильмах, которые вы смотрите.
Программа курса:
Занятие 1
-Необходимая классификация
-Составные части фильма (кадр, план, сцена, эпизод, часть).
-Крупность кадра.
-Классификация по числу людей в кадре.
-Инструменты
-Мизансцена (floorplan)
-Монтаж диалогов
-Ось взаимодействия.
-Правило 180 градусов.
-Диалог трех и более людей.
-Метод «петли».
-Баланс кадров.
-Просмотр и обуждение примеров
Занятие 2
-Механизм монтажа
-Эффект Кулешова.
-Географический эксперимент Кулешова.
-Понятие склейки.
-Типы склеек.
-Типы планов.
-Правила монтажа
-Правило 30 градусов.
-Монтаж по крупности.
-Правило линейности событий.
-Монтаж по взгляду.
-Просмотр и обуждение примеров
Занятие 3
-Технология
-Пропорции кадра (4x3, 16x19, 2.35 — что это такое).
-Частота кадров.
-Порог мерцания.
-Кино и ТВ.
-Монтаж по движению
-По направлению.
-По фазе движения.
-По скорости движения.
-Склейка на движении.
-Просмотр и обуждение примеров
Занятие 4
-Уровни монтажа.
-Линейный и нелинейный монтаж.
-Приемы монтажа
-Параллельный монтаж.
-Перекрестный монтаж
-"Косая" склейка.
-"Липкое" внимание.
-Jump cut.
-Match Cut.
-Монтаж по композиции.
-Монтаж по контрасту.
-Просмотр и обуждение примеров
Занятие 5
-Правило экономии планов.
-Длина плана.
-Мотивация к смене плана.
-Как начать и закончить сцену?
-Эмоциональная кривая сцены.
-Метод возрастания крупностей.
-Главный герой.
-Шесть вопросов сцены.
-Просмотр и обуждение примеров
Занятие 6
-Ракурс.
-Звук в монтаже.
-Вертикальный монтаж.
-Полиэкран.
-Внутрикадровый монтаж.
-Темп и ритм.
-Мифы
-25-й кадр.
-Средний+средний.
-Длина плана.
-Запутать зрителя.
-Ошибки
-Jump Cut.
-Липкое внимание.
-Пересечение оси.
-Прыжок по оси.
-Просмотр и обуждение примеров

MI#1

Общее
Полное имя : D:\Торренты\Теория монтажа\Lesson_02\Lesson_02\Lesson_02_01.avi
Формат : AVI
Формат/Информация : Audio Video Interleave
Размер файла : 855 Мбайт
Продолжительность : 2 ч. 3 м.
Общий поток : 966 Кбит/сек
Программа кодирования : BandiAviMuxer 1.0
Видео
Идентификатор : 0
Формат : AVC
Формат/Информация : Advanced Video Codec
Профиль формата : [url=mailto:Main@L4.0]Main@L4.0[/url]
Параметр CABAC формата : Да
Параметр ReFrames формата : 1 кадр
Идентификатор кодека : H264
Продолжительность : 2 ч. 3 м.
Битрейт : 825 Кбит/сек
Ширина : 1912 пикселей
Высота : 1020 пикселей
Соотношение сторон : 1,85:1
Частота кадров : 23,976 кадра/сек
Цветовое пространство : YUV
Субдискретизация насыщенности : 4:2:0
Битовая глубина : 8 бит
Тип развёртки : Прогрессивная
Бит/(Пиксели*Кадры) : 0.018
Размер потока : 731 Мбайт (85%)
Аудио
Идентификатор : 1
Формат : MPEG Audio
Версия формата : Version 1
Профиль формата : Layer 2
Идентификатор кодека : 50
Продолжительность : 2 ч. 3 м.
Вид битрейта : Постоянный
Битрейт : 128 Кбит/сек
Каналы : 1 канал
Частота : 48,0 КГц
Метод сжатия : С потерями
Размер потока : 113 Мбайт (13%)
Выравнивание : Соединение по промежуткам
Продолжительность промежутка : 24 мс. (0,58 видеокадр)
Время предзагрузки промежутка : 120 мс.

MI#2

Общее
Полное имя : D:\Торренты\Теория монтажа\Lesson_02\Lesson_02\Lesson 2\L2-1-body of proof 1.mp4
Формат : MPEG-4
Профиль формата : Base Media / Version 2
Идентификатор кодека : mp42
Размер файла : 2,41 Мбайт
Продолжительность : 6 с. 240 мс.
Режим общего битрейта : Переменный
Общий поток : 3243 Кбит/сек
Дата кодирования : UTC 2014-09-28 14:38:26
Дата пометки : UTC 2014-09-28 14:38:27
©TIM : 00:00:00:00
©TSC : 25
©TSZ : 1
Видео
Идентификатор : 1
Формат : AVC
Формат/Информация : Advanced Video Codec
Профиль формата : [url=mailto:Main@L3.1]Main@L3.1[/url]
Параметр CABAC формата : Да
Параметр ReFrames формата : 3 кадра
Идентификатор кодека : avc1
Идентификатор кодека/Информация : Advanced Video Coding
Продолжительность : 6 с. 240 мс.
Вид битрейта : Переменный
Битрейт : 2911 Кбит/сек
Максимальный битрейт : 12,0 Мбит/сек
Ширина : 708 пикселей
Высота : 528 пикселей
Соотношение сторон : 4:3
Режим частоты кадров : Постоянный
Частота кадров : 25,000 кадров/сек
Стандарт вещания : PAL
Цветовое пространство : YUV
Субдискретизация насыщенности : 4:2:0
Битовая глубина : 8 бит
Тип развёртки : Прогрессивная
Бит/(Пиксели*Кадры) : 0.311
Размер потока : 2,17 Мбайт (90%)
Язык : English
Дата кодирования : UTC 2014-09-28 14:38:26
Дата пометки : UTC 2014-09-28 14:38:26
Аудио
Идентификатор : 2
Формат : AAC
Формат/Информация : Advanced Audio Codec
Профиль формата : LC
Идентификатор кодека : 40
Продолжительность : 6 с. 240 мс.
Продолжительность оригинала : 6 с. 293 мс.
Вид битрейта : Переменный
Битрейт : 317 Кбит/сек
Максимальный битрейт : 373 Кбит/сек
Каналы : 2 канала
Расположение каналов : Front: L R
Частота : 48,0 КГц
Метод сжатия : С потерями
Размер потока : 242 Кбайт (10%)
Размер потока оригинала : 244 Кбайт (10%)
Язык : English
Дата кодирования : UTC 2014-09-28 14:38:26
Дата пометки : UTC 2014-09-28 14:38:26
Скриншоты:
Скачать .torrent

Для того, чтобы скачать торрент-файл

Profileschool - Теория монтажа (2014)

с нашего сайта, Вам необходимо Войти на сайт под своим логином! Если у Вас ещё нет логина, тогда Вам нужно сначала Зарегистрироваться!

Как скачивать? · Что такое торрент? · Рейтинг и ограничения

kost

Спасибо)

MeteorBurn

Спасибо!

ambric

спасибо! а список рекомендованной литературы есть у кого-нибудь?

Bruno123

Спасибо !

fullhouse.md

спасибо!!
Показать сообщения:    
Ответить на тему

Profileschool - Теория монтажа (2014) скачать торрент (torrent), видеоуроки, тренинги, обучающее видео и видеокурсы

Текущее время: Сегодня 15:58

Часовой пояс: GMT + 4



Вы не можете начинать темы
Вы не можете отвечать на сообщения
Вы не можете редактировать свои сообщения
Вы не можете удалять свои сообщения
Вы не можете голосовать в опросах
Вы не можете прикреплять файлы к сообщениям
Вы не можете скачивать файлы