Александр Заморин - Студийный портрет 1, 2, 3 (2013)

Ответить на тему
 
Автор Сообщение

Yulya ®

-Александр Заморин - Студийный портрет 1, 2, 3 (2013)- Автор (режиссер): Александр Заморин
Жанр: Обучающее видео
Продолжительность: 03:14:10+02:12:08+02:34:55
Качество видео: PCRec
Видеокодек: AVC (H264)
Битрейт видео: ~~981kbps
Размер кадра: 1280x720, 1200х900
Аудиокодек: AAC
Битрейт аудио: 93.1 Kbps
Описание:
Три ступени мастерства курса "Студийный портрет" – это полный путь от первого снимка до профессионального результата,
за который люди вам с радостью заплатят хорошие деньги.

Программа курса:

Ступень – 1 Начальный уровень
Урок 1. Вводный материал.
- Отличие студийной съёмки от остальной фотографии
- Как начать видеть световой рисунок
- Знакомство со студийным оборудованием
- Как выставляется свет и синхронизируется свет в студии
- С каким объективом и фотокамерой у вас будут шансы на успех
Урок 2. Классическая схема постановки света
- Чем отличаются световые схемы между собой, и какие они бывают
- Делаем первый портрет за 15 минут
- Исправляем 3 стандартные (незаметные на первый взгляд) ошибки
- Делаем портрет профессионального качества
Урок 3. Создаём мягкий светотеневой рисунок для женских портретов
- В чём особенность женских портретов
- Идеальная схема построения света в женском портрете
- Особенности корректировки света при смене ракурсов
Урок 4. Создаем жесткий светотеневой рисунок для мужских портретов
- Почему мужские портреты снимаются совсем иначе
- Три золотых правила, которые вам следует знать о мужском портрете
- С какими двумя световыми схемами вы сможете получить наиболее эффектный мужской портрет
Урок 5. Драматические портреты в низком ключе
- Универсальная схема, позволяющая создать стильный и строгий портрет в низком ключе
- Эксперименты и неожиданные образы с помощью техники «низкий ключ»
Урок 6. Нежные портреты в высоком ключе
- Почему 95% снимков в высоком ключе смотрятся «дешево», а 5% очень эффектны
- Профессиональный подход к съёмке в высоком ключе
- Особенности подготовки модели к съёмке
- Особенности работы с фоном и светом
Урок 7. Снимаем в стиле beauty & fashion
- В чем секрет простоты и сложности портретов beauty & fashion
- Подготовка модели, что ретушируется, а что нет
- Три профессиональные схемы постановки света
- Работа с отражателями, резкий и мягкий рисунок
- Универсальные ракурсы и планы для портретов beauty
Урок 8. Композиционные тонкости красивого портрета в студии
- Почему будет лучше, если вы не будете следовать стандартным правилам
- В каких местах можно и нельзя кадрировать портрет
- Расположение модели в кадре
- Работа со взглядом, плечами и наклоном головы
- Композиция в ростовых и сидячих портретах
- Десять ошибок в позировании
- Завершение первой ступени и выводы
Ступень – 2 Продвинутый уровень
Урок 1. Создание неповторимого студийного образа
- Откуда черпать идеи для создания интересных и красивых образов
- Как определить, подходит ли образ конкретному человеку
- Подбор декораций, одежды, макияжа
- Лучшие техники системы «Креатив 2.0»
Урок 2. Психологический контакт с моделью, основы позирования
- Самый простой способ расположить к себе человека
- Как, работая с не профессиональными моделями получить красивые формы в позирование
- Как получить нужные эмоции на снимке, и в какой момент нажимать кнопку
Урок 3. Продвинутые композиционные хитрости для создания сильных и цепляющих фотографий
- В чем отличие сильных снимков от слабых
- Работа с формами и силуэтом
- Важность деталей и композиционного центра в портрете
- Как заставить зрителя поверить в созданный вами образ
Урок 4. Цветовое решение в портрете
- Как создается гармоничная композиция цвета
- Выражение эмоций в цвете
- Как подчеркнуть идею с помощью правильного подбора цвета в макияже, одежде и аксессуарах
- Какие цвета ни в коем случае нельзя сочетать между собой
- Как с помощью цвета управлять чувствами зрителя
Урок 5. Спецэффекты со светом
- Использование цветных и конверсионных фильтров
- Съёмка со смешанными источниками света
- Съёмка необычных фотографий с помощью одного источника света
- Создание красивого эффекта «сцены»
- Съёмка эффектных фотографий в контровом свете
- Игра с тенями
- Двухмерная фотография
- Создание волшебных фотографий с использованием подсеченного дыма
Урок 6. Креативный портрет
- Что означает понятие «фотография под зрителя»
- Современные тенденции, как не быть «банальным и безвкусным»
- Нестандартные подходы к созданию студийного образа
Урок 7. Психологический портрет
- Отличие этого жанра портретной фотографии от других
- Простые схемы построения света
- Установление правильного настроения
Урок 8. Преображение человека без Photoshop – высокое мастерство фотографии.
- Пять типов моделей, о которых вы должны знать
- Поиск наиболее удачных ракурсов для конкретного человека
- Несколько правил о макияже
- Отчего отвлекают внимание аксессуары
- Как фотографировать полных людей
- Какую одежду лучше не использовать на съёмках
- Позы, которые не всем идут
- Поиск выразительных образов для человека
Ступень - 3 Профессиональный уровень
Урок 1. Первый заработок на студийном портрете
- Как работает коммерческое направление студийного портрета
- Простой способ зарабатывать заработка в этом жанре не имея собственной студии
- Где найти большой поток желающих фотографироваться именно у вас
Урок 2. Построение собственной команды
- Совместная работа с визажистом и парикмахером – минимизируем затраты и увеличиваем прибыль
- Где найти хороших профессионалов к себе в команду, если у вас ещё нет какой-то известности
Урок 3. Съёмка портфолио для моделей
Урок 4. Фотосессии на заказ (семейные, детские, парные, одиночные)
Урок 5. Продажа снимков в фотобанк – постоянный источник пассивной прибыли.
Урок 6. Работа с клиентами
- Совместное создание студийного образа вместе с клиентом
- Какие три вопроса нужно заранее задать клиенту, чтобы потом с ним было максимально просто работать?
Урок 7. Юридические тонкости работы с моделями и заказчиками
Урок 8. Готовый бизнес план по открытию фотостудии у себя в городе

MediaInfo

General
Complete name : H:\tutorials\Александр Заморин\Александр Заморин - Студийный портрет (2013)\part-1\p-1-l-1.mp4
Format : MPEG-4
Format profile : Base Media / Version 2
Codec ID : mp42
File size : 193 MiB
Duration : 25mn 5s
Overall bit rate : 1 078 Kbps
Encoded date : UTC 2013-12-18 08:30:30
Tagged date : UTC 2013-12-18 08:30:30
Video
ID : 1
Format : AVC
Format/Info : Advanced Video Codec
Format profile : [url=mailto:High@L4.0]High@L4.0[/url]
Format settings, CABAC : Yes
Format settings, ReFrames : 4 frames
Codec ID : avc1
Codec ID/Info : Advanced Video Coding
Duration : 25mn 5s
Source duration : 25mn 5s
Bit rate : 982 Kbps
Width : 1 280 pixels
Height : 720 pixels
Display aspect ratio : 16:9
Frame rate mode : Constant
Frame rate : 25.000 fps
Standard : PAL
Color space : YUV
Chroma subsampling : 4:2:0
Bit depth : 8 bits
Scan type : Progressive
Bits/(Pixel*Frame) : 0.043
Stream size : 176 MiB (91%)
Source stream size : 176 MiB (91%)
Language : English
Encoded date : UTC 2013-12-18 08:30:30
Tagged date : UTC 2013-12-18 08:30:30
Color primaries : BT.709
Transfer characteristics : BT.709
Matrix coefficients : BT.709
mdhd_Duration : 1505824
Audio
ID : 2
Format : AAC
Format/Info : Advanced Audio Codec
Format profile : LC
Codec ID : 40
Duration : 25mn 5s
Source duration : 25mn 5s
Bit rate mode : Constant
Bit rate : 93.7 Kbps
Channel count : 2 channels
Channel positions : Front: L R
Sampling rate : 44.1 KHz
Compression mode : Lossy
Stream size : 16.8 MiB (9%)
Source stream size : 16.8 MiB (9%)
Language : English
Encoded date : UTC 2013-12-18 08:30:30
Tagged date : UTC 2013-12-18 08:30:30
mdhd_Duration : 1504522
General
Complete name : H:\tutorials\Александр Заморин\Александр Заморин - Студийный портрет (2013)\part-1\p-1-l-8.mp4
Format : MPEG-4
Format profile : Base Media / Version 2
Codec ID : mp42
File size : 31.4 MiB
Duration : 22mn 13s
Overall bit rate : 198 Kbps
Encoded date : UTC 2013-12-26 16:44:10
Tagged date : UTC 2013-12-26 16:44:10
Video
ID : 1
Format : AVC
Format/Info : Advanced Video Codec
Format profile : [url=mailto:High@L4.0]High@L4.0[/url]
Format settings, CABAC : Yes
Format settings, ReFrames : 4 frames
Codec ID : avc1
Codec ID/Info : Advanced Video Coding
Duration : 22mn 13s
Source duration : 22mn 13s
Bit rate : 102 Kbps
Width : 1 200 pixels
Height : 900 pixels
Display aspect ratio : 4:3
Frame rate mode : Constant
Frame rate : 15.000 fps
Color space : YUV
Chroma subsampling : 4:2:0
Bit depth : 8 bits
Scan type : Progressive
Bits/(Pixel*Frame) : 0.006
Stream size : 16.3 MiB (52%)
Source stream size : 16.3 MiB (52%)
Language : English
Encoded date : UTC 2013-12-26 16:44:10
Tagged date : UTC 2013-12-26 16:44:10
Color primaries : BT.709
Transfer characteristics : BT.709
Matrix coefficients : BT.709
mdhd_Duration : 1332851
Audio
ID : 2
Format : AAC
Format/Info : Advanced Audio Codec
Format profile : LC
Codec ID : 40
Duration : 22mn 13s
Source duration : 22mn 13s
Bit rate mode : Constant
Bit rate : 93.1 Kbps
Channel count : 2 channels
Channel positions : Front: L R
Sampling rate : 44.1 KHz
Compression mode : Lossy
Stream size : 14.8 MiB (47%)
Source stream size : 14.8 MiB (47%)
Language : English
Encoded date : UTC 2013-12-26 16:44:10
Tagged date : UTC 2013-12-26 16:44:10
mdhd_Duration : 1332149
Скриншоты:
Скачать .torrent

Для того, чтобы скачать торрент-файл

Александр Заморин - Студийный портрет 1, 2, 3 (2013)

с нашего сайта, Вам необходимо Войти на сайт под своим логином! Если у Вас ещё нет логина, тогда Вам нужно сначала Зарегистрироваться!

Как скачивать? · Что такое торрент? · Рейтинг и ограничения

Показать сообщения:    
Ответить на тему

Александр Заморин - Студийный портрет 1, 2, 3 (2013) скачать торрент (torrent), видеоуроки, тренинги, обучающее видео и видеокурсы

Текущее время: Сегодня 04:00

Часовой пояс: GMT + 4



Вы не можете начинать темы
Вы не можете отвечать на сообщения
Вы не можете редактировать свои сообщения
Вы не можете удалять свои сообщения
Вы не можете голосовать в опросах
Вы не можете прикреплять файлы к сообщениям
Вы не можете скачивать файлы