[HighlightsSchool] Борис Вербицкий - Начальный курс ретуши (2014)

Ответить на тему
 
Автор Сообщение

Yulya ®

-[HighlightsSchool] Борис Вербицкий - Начальный курс ретуши (2014)- Автор (режиссер): Борис Вербицкий
Жанр: Обучающее видео
Продолжительность: 10:32:30
Качество видео: PCRec
Видеокодек: AVC (H264)
Битрейт видео: ~180 ~320kbps
Размер кадра: 1680x1050
Аудиокодек: AAC
Битрейт аудио: 192kbps
Описание:
Курс по ретуши и обработки фото в фотошопе

MediaInfo:

General
Complete name :/Борис Вербицкий - Начальный курс ретуши (2014)\1 23 мая\2014-05-22_220932412.mp4
Format : MPEG-4
Format profile : Base Media
Codec ID : isom
File size : 162 MiB
Duration : 57mn 25s
Overall bit rate : 393 Kbps
Writing application : Lavf54.63.100
Video
ID : 2
Format : AVC
Format/Info : Advanced Video Codec
Format profile : [url=mailto:High@L4.0]High@L4.0[/url]
Format settings, CABAC : Yes
Format settings, ReFrames : 4 frames
Codec ID : avc1
Codec ID/Info : Advanced Video Coding
Duration : 57mn 25s
Bit rate : 188 Kbps
Width : 1 680 pixels
Height : 1 050 pixels
Display aspect ratio : 16:10
Frame rate mode : Constant
Frame rate : 30.000 fps
Color space : YUV
Chroma subsampling : 4:2:0
Bit depth : 8 bits
Scan type : Progressive
Bits/(Pixel*Frame) : 0.004
Stream size : 77.1 MiB (48%)
Writing library : x264 core 139 r2363 2ccee72
Encoding settings : cabac=1 / ref=1 / deblock=1:0:0 / analyse=0x3:0x113 / me=hex / subme=2 / psy=1 / psy_rd=1.00:0.00 / mixed_ref=0 / me_range=16 / chroma_me=1 / trellis=0 / 8x8dct=1 / cqm=0 / deadzone=21,11 / fast_pskip=1 / chroma_qp_offset=0 / threads=12 / lookahead_threads=4 / sliced_threads=0 / nr=0 / decimate=1 / interlaced=0 / bluray_compat=0 / constrained_intra=0 / bframes=3 / b_pyramid=2 / b_adapt=1 / b_bias=0 / direct=1 / weightb=1 / open_gop=0 / weightp=1 / keyint=250 / keyint_min=25 / scenecut=40 / intra_refresh=0 / rc_lookahead=10 / rc=crf / mbtree=1 / crf=25.0 / qcomp=0.60 / qpmin=0 / qpmax=69 / qpstep=4 / ip_ratio=1.40 / aq=1:1.00
Audio
ID : 1
Format : AAC
Format/Info : Advanced Audio Codec
Format profile : LC
Codec ID : 40
Duration : 57mn 25s
Bit rate mode : Constant
Bit rate : 192 Kbps
Channel count : 2 channels
Channel positions : Front: L R
Sampling rate : 44.1 KHz
Compression mode : Lossy
Stream size : 80.1 MiB (50%)
General
Complete name : H:\tutorials\Highlights school\Борис Вербицкий - Начальный курс ретуши (2014)\1 23 мая\2014-05-22_231927775.mp4
Format : MPEG-4
Format profile : Base Media
Codec ID : isom
File size : 151 MiB
Duration : 40mn 48s
Overall bit rate : 518 Kbps
Writing application : Lavf54.63.100
Video
ID : 2
Format : AVC
Format/Info : Advanced Video Codec
Format profile : [url=mailto:High@L4.0]High@L4.0[/url]
Format settings, CABAC : Yes
Format settings, ReFrames : 4 frames
Codec ID : avc1
Codec ID/Info : Advanced Video Coding
Duration : 40mn 48s
Bit rate : 313 Kbps
Width : 1 680 pixels
Height : 1 050 pixels
Display aspect ratio : 16:10
Frame rate mode : Variable
Frame rate : 29.970 fps
Minimum frame rate : 1.667 fps
Maximum frame rate : 30.000 fps
Color space : YUV
Chroma subsampling : 4:2:0
Bit depth : 8 bits
Scan type : Progressive
Bits/(Pixel*Frame) : 0.006
Stream size : 91.2 MiB (60%)
Writing library : x264 core 139 r2363 2ccee72
Encoding settings : cabac=1 / ref=1 / deblock=1:0:0 / analyse=0x3:0x113 / me=hex / subme=2 / psy=1 / psy_rd=1.00:0.00 / mixed_ref=0 / me_range=16 / chroma_me=1 / trellis=0 / 8x8dct=1 / cqm=0 / deadzone=21,11 / fast_pskip=1 / chroma_qp_offset=0 / threads=12 / lookahead_threads=4 / sliced_threads=0 / nr=0 / decimate=1 / interlaced=0 / bluray_compat=0 / constrained_intra=0 / bframes=3 / b_pyramid=2 / b_adapt=1 / b_bias=0 / direct=1 / weightb=1 / open_gop=0 / weightp=1 / keyint=250 / keyint_min=25 / scenecut=40 / intra_refresh=0 / rc_lookahead=10 / rc=crf / mbtree=1 / crf=25.0 / qcomp=0.60 / qpmin=0 / qpmax=69 / qpstep=4 / ip_ratio=1.40 / aq=1:1.00
Audio
ID : 1
Format : AAC
Format/Info : Advanced Audio Codec
Format profile : LC
Codec ID : 40
Duration : 40mn 48s
Bit rate mode : Constant
Bit rate : 192 Kbps
Channel count : 2 channels
Channel positions : Front: L R
Sampling rate : 44.1 KHz
Compression mode : Lossy
Stream size : 56.9 MiB (38%)
Скриншоты:
Скачать .torrent

Для того, чтобы скачать торрент-файл

[HighlightsSchool] Борис Вербицкий - Начальный курс ретуши (2014)

с нашего сайта, Вам необходимо Войти на сайт под своим логином! Если у Вас ещё нет логина, тогда Вам нужно сначала Зарегистрироваться!

Как скачивать? · Что такое торрент? · Рейтинг и ограничения

jannet1552

Вам помог этот урок?)
Показать сообщения:    
Ответить на тему

[HighlightsSchool] Борис Вербицкий - Начальный курс ретуши (2014) скачать торрент (torrent), видеоуроки, тренинги, обучающее видео и видеокурсы

Текущее время: Сегодня 22:18

Часовой пояс: GMT + 4



Вы не можете начинать темы
Вы не можете отвечать на сообщения
Вы не можете редактировать свои сообщения
Вы не можете удалять свои сообщения
Вы не можете голосовать в опросах
Вы не можете прикреплять файлы к сообщениям
Вы не можете скачивать файлы