Дмитрий Гусев - Осенний портрет (2013)

Ответить на тему
 
Автор Сообщение

Yulya ®

-Дмитрий Гусев - Осенний портрет (2013)- Автор (режиссер): Дмитрий Гусев
Жанр: Обучающее видео
Продолжительность: 00:41:39+00:43:27
Качество видео: WEBRip
Видеокодек: AVC H264
Битрейт видео: ~1448kbps, 4941Kbps
Размер кадра: 1920x1080
Аудиокодек: AAC
Битрейт аудио: 320Kbps
Описание:
Обучающий видеокурс по съемке и обработке осеннего портрета

MediaInfo:

General
Complete name : G:\Дмитрий Гусев - Осенний портрет (2013)\natasha1080p.mp4
Format : MPEG-4
Format profile : Base Media / Version 2
Codec ID : mp42
File size : 527 MiB
Duration : 41mn 38s
Overall bit rate mode : Variable
Overall bit rate : 1 770 Kbps
Encoded date : UTC 2013-10-06 08:53:19
Tagged date : UTC 2013-10-06 08:53:29
©TIM : 00:00:00:00
©TSC : 24000
©TSZ : 1001
Video
ID : 1
Format : AVC
Format/Info : Advanced Video Codec
Format profile : [url=mailto:High@L4.0]High@L4.0[/url]
Format settings, CABAC : Yes
Format settings, ReFrames : 3 frames
Codec ID : avc1
Codec ID/Info : Advanced Video Coding
Duration : 41mn 38s
Source duration : 41mn 38s
Bit rate : 1 449 Kbps
Width : 1 920 pixels
Height : 1 080 pixels
Display aspect ratio : 16:9
Frame rate mode : Variable
Frame rate : 23.976 fps
Minimum frame rate : 23.976 fps
Maximum frame rate : 24.000 fps
Standard : NTSC
Color space : YUV
Chroma subsampling : 4:2:0
Bit depth : 8 bits
Scan type : Progressive
Bits/(Pixel*Frame) : 0.029
Stream size : 432 MiB (82%)
Source stream size : 432 MiB (82%)
Language : English
Encoded date : UTC 2013-10-06 08:53:19
Tagged date : UTC 2013-10-06 08:53:19
Color primaries : BT.709
Transfer characteristics : BT.709
Matrix coefficients : BT.709
mdhd_Duration : 2498746
Audio
ID : 2
Format : AAC
Format/Info : Advanced Audio Codec
Format profile : LC
Codec ID : 40
Duration : 41mn 38s
Source duration : 41mn 38s
Bit rate mode : Variable
Bit rate : 317 Kbps
Maximum bit rate : 413 Kbps
Channel count : 2 channels
Channel positions : Front: L R
Sampling rate : 48.0 KHz
Compression mode : Lossy
Stream size : 94.5 MiB (18%)
Source stream size : 94.5 MiB (18%)
Language : English
Encoded date : UTC 2013-10-06 08:53:19
Tagged date : UTC 2013-10-06 08:53:19
mdhd_Duration : 2498816
General
Complete name : G:Дмитрий Гусев - Осенний портрет (2013)\urok.mp4
Format : AVI
Format/Info : Audio Video Interleave
Format profile : OpenDML
File size : 1.50 GiB
Duration : 43mn 27s
Overall bit rate : 4 941 Kbps
TCOD : 804470333
TCDO : 26877183666
Video
ID : 0
Format : AVC
Format/Info : Advanced Video Codec
Format profile : [url=mailto:High@L4.0]High@L4.0[/url]
Format settings, CABAC : Yes
Format settings, ReFrames : 3 frames
Codec ID : H264
Duration : 43mn 27s
Bit rate : 4 500 Kbps
Width : 1 920 pixels
Height : 1 080 pixels
Display aspect ratio : 16:9
Frame rate : 29.970 fps
Color space : YUV
Chroma subsampling : 4:2:0
Bit depth : 8 bits
Scan type : Progressive
Bits/(Pixel*Frame) : 0.072
Stream size : 1.38 GiB (92%)
Writing library : x264 core 130 r2273kMod b3065e6
Encoding settings : cabac=1 / ref=3 / deblock=1:0:0 / analyse=0x3:0x13 / me=umh / subme=7 / psy=1 / fade_compensate=0.00 / psy_rd=1.00:0.00 / mixed_ref=1 / me_range=16 / chroma_me=1 / trellis=1 / 8x8dct=1 / cqm=0 / deadzone=21,11 / fast_pskip=1 / chroma_qp_offset=-2 / threads=8 / lookahead_threads=8 / sliced_threads=1 / slices=8 / nr=0 / decimate=1 / interlaced=0 / bluray_compat=0 / constrained_intra=0 / bframes=0 / weightp=2 / keyint=250 / keyint_min=25 / scenecut=40 / intra_refresh=0 / rc=abr / mbtree=0 / bitrate=4500 / ratetol=1.0 / qcomp=0.60 / qpmin=10 / qpmax=51 / qpstep=4 / ip_ratio=1.40 / aq=1:1.00
Audio
ID : 1
Format : MPEG Audio
Format version : Version 1
Format profile : Layer 3
Mode : Joint stereo
Codec ID : 55
Codec ID/Hint : MP3
Duration : 43mn 27s
Bit rate mode : Constant
Bit rate : 320 Kbps
Channel count : 2 channels
Sampling rate : 48.0 KHz
Compression mode : Lossy
Stream size : 99.5 MiB (6%)
Alignment : Aligned on interleaves
Interleave, duration : 250 ms (7.49 video frames)
Interleave, preload duration : 264 ms
Скриншоты:
Скачать .torrent

Для того, чтобы скачать торрент-файл

Дмитрий Гусев - Осенний портрет (2013)

с нашего сайта, Вам необходимо Войти на сайт под своим логином! Если у Вас ещё нет логина, тогда Вам нужно сначала Зарегистрироваться!

Как скачивать? · Что такое торрент? · Рейтинг и ограничения

Показать сообщения:    
Ответить на тему

Дмитрий Гусев - Осенний портрет (2013) скачать торрент (torrent), видеоуроки, тренинги, обучающее видео и видеокурсы

Текущее время: Сегодня 22:16

Часовой пояс: GMT + 4



Вы не можете начинать темы
Вы не можете отвечать на сообщения
Вы не можете редактировать свои сообщения
Вы не можете удалять свои сообщения
Вы не можете голосовать в опросах
Вы не можете прикреплять файлы к сообщениям
Вы не можете скачивать файлы