Александр Талюка - Мастер-класс Glamour&Nude (2014)

Ответить на тему
 
Автор Сообщение

Yulya ®

-Александр Талюка - Мастер-класс Glamour&Nude (2014)- Автор (режиссер): Александр Талюка
Жанр: Обучающее видео
Продолжительность: 03:33:25
Качество видео: WEB-DL
Видеокодек: MPEG4
Битрейт видео: ~1191kbps
Размер кадра: 1280x720
Аудиокодек: AAC
Битрейт аудио: 44100Hz stereo 109kbps
Описание:
На сегодняшний день в фотографии гламур — один из самых популярных и востребованных жанров, как в рекламе, так и у частных клиентов. Все хотят выглядеть как звезда на обложке или как сексуальная модель Victoria's Secret.Многие фотографы, которые начинают работать в этом жанре, сталкиваются с множеством вопросов и технических сложностей.
На онлайн мастер-классе Александр Талюка покажет, как делаются такие фотографии. Расскажет об основных техниках их создания, поделится своими наработками и секретами по работе в данном жанре фотографии. В рамках мастер-классабудет на практике рассмотрено, как готовиться к такой съемке, как создавать роскошные и сексуальные образы, каковы особенности работы с моделью и технические аспекты съемки и постановки света.
Как проходит мастер-класс? Занятие проводится из фотостудии с участием профессиональной модели и стилиста.

MediaInfo:

General
Complete name : E:\Торрент\МК Glamour&Nude - Талюка Александр - Profileschool\МК Glamour&Nude - Талюка Александр - Profileschool\МК Талюка Glamour_Nude (1280x720).mp4
Format : MPEG-4
Format profile : Base Media / Version 2
Codec ID : mp42
File size : 1.94 GiB
Duration : 3h 33mn
Overall bit rate mode : Variable
Overall bit rate : 1 303 Kbps
Encoded date : UTC 2014-08-19 21:28:29
Tagged date : UTC 2014-08-19 21:31:05
Writing application : mp4creator 1.6.1d
Video
ID : 1
Format : MPEG-4 Visual
Format profile : Simple@L1
Format settings, BVOP : No
Format settings, QPel : No
Format settings, GMC : No warppoints
Format settings, Matrix : Default (H.263)
Codec ID : 20
Duration : 3h 33mn
Bit rate mode : Variable
Bit rate : 1 191 Kbps
Maximum bit rate : 9 849 Kbps
Width : 1 280 pixels
Height : 720 pixels
Display aspect ratio : 16:9
Frame rate mode : Constant
Frame rate : 30.000 fps
Color space : YUV
Chroma subsampling : 4:2:0
Bit depth : 8 bits
Scan type : Progressive
Compression mode : Lossy
Bits/(Pixel*Frame) : 0.043
Stream size : 1.78 GiB (91%)
Language : English
Encoded date : UTC 2014-08-19 21:28:29
Tagged date : UTC 2014-08-19 21:31:02
Audio
ID : 2
Format : AAC
Format/Info : Advanced Audio Codec
Format profile : LC
Codec ID : 40
Duration : 3h 33mn
Source duration : 3h 33mn
Bit rate mode : Variable
Bit rate : 109 Kbps
Maximum bit rate : 260 Kbps
Channel(s) : 2 channels
Channel positions : Front: L R
Sampling rate : 44.1 KHz
Compression mode : Lossy
Stream size : 167 MiB (8%)
Source stream size : 167 MiB (8%)
Language : English
Encoded date : UTC 2014-08-19 21:31:03
Tagged date : UTC 2014-08-19 21:31:05
Скриншоты:
Скачать .torrent

Для того, чтобы скачать торрент-файл

Александр Талюка - Мастер-класс Glamour&Nude (2014)

с нашего сайта, Вам необходимо Войти на сайт под своим логином! Если у Вас ещё нет логина, тогда Вам нужно сначала Зарегистрироваться!

Как скачивать? · Что такое торрент? · Рейтинг и ограничения

Показать сообщения:    
Ответить на тему

Александр Талюка - Мастер-класс Glamour&Nude (2014) скачать торрент (torrent), видеоуроки, тренинги, обучающее видео и видеокурсы

Текущее время: Сегодня 06:26

Часовой пояс: GMT + 4



Вы не можете начинать темы
Вы не можете отвечать на сообщения
Вы не можете редактировать свои сообщения
Вы не можете удалять свои сообщения
Вы не можете голосовать в опросах
Вы не можете прикреплять файлы к сообщениям
Вы не можете скачивать файлы