[Profileschool] Александр Талюка - Как начать снимать НЮ? (2014)

Ответить на тему
 
Автор Сообщение

Yulya ®

-[Profileschool] Александр Талюка - Как начать снимать НЮ? (2014)- Автор (режиссер): Александр Талюка
Жанр: Обучающее видео
Продолжительность: 04:03:39+01:31:06+02:05:56
Качество видео: PCRec
Видеокодек: AVC H264
Битрейт видео: 1866kbps, 152kbps, 145kbps
Размер кадра: 1280*720 и 846*480
Описание:
Поговорим об особенностях работы с моделью в естественном свете. О том, как подготовиться к съемке и что снимать. Программа мастер-класса очень насыщенная и уникальная, она содержит самый интересный опыт и рекомендации. Будут рассмотрены все возникающие вопросы у тех, кто только начинает осваивать этот интересный и увлекательный жанр фотографии. Также преподаватель покажет авторские наработки и приемы при съемке с естественным освещением, которые могут быть интересны не только начинающим, но и практикующим фотографам.
Данный мастер-класс — первый из серии обучающих мероприятий по съемке ню в онлайн-формате, задача которых — научить видеть художественно и эстетически подходить к созданию снимка в жанре ню. Мастер-класс позволит освоить навыки работы с моделью и светом, а также получать снимки, достойные публикации как в художественных изданиях, выставках, конкурсах, так и в глянцевых журналах.
Как проходит мастер-класс? Занятие проводится из фотостудии с участием профессиональной модели и стилиста. Вы подключаетесь к занятию через Интернет откуда вам удобно, а качественная картинка трансляции позволяет рассмотреть все нюансы съемки. Вы получаете интерактивную обратную связь с преподавателем и можете задать любой интересующий вас вопрос. Вы видите, как живое занятие полностью погружает вас в атмосферу студии ипроцесса съемки.

MediaInfo

General
Complete name : H:\tutorials\profileschool.ru\Александр Талюка - МК Как снимать Ню\2014.04.06 - md Kris Strange\2014.04.06 - Kris Strange.mp4
Format : MPEG-4
Format profile : Base Media / Version 2
Codec ID : mp42
File size : 3.38 GiB
Duration : 4h 3mn
Overall bit rate : 1 983 Kbps
Encoded date : UTC 2014-04-11 14:20:15
Tagged date : UTC 2014-04-11 14:20:15
Video
ID : 1
Format : AVC
Format/Info : Advanced Video Codec
Format profile : [url=mailto:High@L4.0]High@L4.0[/url]
Format settings, CABAC : Yes
Format settings, ReFrames : 4 frames
Codec ID : avc1
Codec ID/Info : Advanced Video Coding
Duration : 4h 3mn
Source duration : 4h 3mn
Bit rate : 1 866 Kbps
Width : 1 280 pixels
Height : 720 pixels
Display aspect ratio : 16:9
Frame rate mode : Constant
Frame rate : 15.000 fps
Color space : YUV
Chroma subsampling : 4:2:0
Bit depth : 8 bits
Scan type : Progressive
Bits/(Pixel*Frame) : 0.135
Stream size : 3.18 GiB (94%)
Source stream size : 3.18 GiB (94%)
Language : English
Encoded date : UTC 2014-04-11 14:20:15
Tagged date : UTC 2014-04-11 14:20:15
Color primaries : BT.709
Transfer characteristics : BT.709
Matrix coefficients : BT.709
mdhd_Duration : 14607104
Audio
ID : 2
Format : AAC
Format/Info : Advanced Audio Codec
Format profile : LC
Codec ID : 40
Duration : 4h 3mn
Source duration : 4h 3mn
Bit rate mode : Constant
Bit rate : 114 Kbps
Channel count : 2 channels
Channel positions : Front: L R
Sampling rate : 44.1 KHz
Compression mode : Lossy
Stream size : 200 MiB (6%)
Source stream size : 200 MiB (6%)
Language : English
Encoded date : UTC 2014-04-11 14:20:15
Tagged date : UTC 2014-04-11 14:20:15
mdhd_Duration : 14713665
General
Complete name : H:\tutorials\profileschool.ru\Александр Талюка - МК Как снимать Ню\2014.04.26 - md Полина Гуляева\Как снимать в стиле ню. Часть 1.mp4
Format : MPEG-4
Format profile : Base Media / Version 2
Codec ID : mp42
File size : 183 MiB
Duration : 1h 31mn
Overall bit rate mode : Variable
Overall bit rate : 281 Kbps
Encoded date : UTC 2014-04-29 03:18:27
Tagged date : UTC 2014-04-29 03:18:27
Video
ID : 1
Format : AVC
Format/Info : Advanced Video Codec
Format profile : [url=mailto:Main@L3.1]Main@L3.1[/url]
Format settings, CABAC : Yes
Format settings, ReFrames : 3 frames
Codec ID : avc1
Codec ID/Info : Advanced Video Coding
Duration : 1h 31mn
Source duration : 1h 31mn
Bit rate : 153 Kbps
Width : 846 pixels
Height : 480 pixels
Display aspect ratio : 16:9
Frame rate mode : Variable
Frame rate : 30.000 fps
Minimum frame rate : 30.000 fps
Maximum frame rate : 30.030 fps
Standard : NTSC
Color space : YUV
Chroma subsampling : 4:2:0
Bit depth : 8 bits
Scan type : Progressive
Bits/(Pixel*Frame) : 0.013
Stream size : 99.5 MiB (54%)
Source stream size : 99.5 MiB (54%)
Language : English
Encoded date : UTC 2014-04-29 03:18:27
Tagged date : UTC 2014-04-29 03:18:27
mdhd_Duration : 5465934
Audio
ID : 2
Format : AAC
Format/Info : Advanced Audio Codec
Format profile : LC
Codec ID : 40
Duration : 1h 31mn
Source duration : 1h 31mn
Bit rate mode : Variable
Bit rate : 126 Kbps
Maximum bit rate : 526 Kbps
Channel count : 2 channels
Channel positions : Front: L R
Sampling rate : 44.1 KHz
Compression mode : Lossy
Stream size : 81.9 MiB (45%)
Source stream size : 81.9 MiB (45%)
Language : English
Encoded date : UTC 2014-04-29 03:18:27
Tagged date : UTC 2014-04-29 03:18:27
mdhd_Duration : 5465978
General
Complete name : H:\tutorials\profileschool.ru\Александр Талюка - МК Как снимать Ню\2014.04.26 - md Полина Гуляева\Как снимать в стиле ню. Часть 2.mp4
Format : MPEG-4
Format profile : Base Media / Version 2
Codec ID : mp42
File size : 247 MiB
Duration : 2h 5mn
Overall bit rate mode : Variable
Overall bit rate : 274 Kbps
Encoded date : UTC 2014-04-29 13:11:30
Tagged date : UTC 2014-04-29 13:11:30
Video
ID : 1
Format : AVC
Format/Info : Advanced Video Codec
Format profile : [url=mailto:Main@L3.1]Main@L3.1[/url]
Format settings, CABAC : Yes
Format settings, ReFrames : 3 frames
Codec ID : avc1
Codec ID/Info : Advanced Video Coding
Duration : 2h 5mn
Source duration : 2h 5mn
Bit rate : 146 Kbps
Width : 846 pixels
Height : 480 pixels
Display aspect ratio : 16:9
Frame rate mode : Variable
Frame rate : 30.000 fps
Minimum frame rate : 30.000 fps
Maximum frame rate : 30.030 fps
Standard : NTSC
Color space : YUV
Chroma subsampling : 4:2:0
Bit depth : 8 bits
Scan type : Progressive
Bits/(Pixel*Frame) : 0.012
Stream size : 131 MiB (53%)
Source stream size : 131 MiB (53%)
Language : English
Encoded date : UTC 2014-04-29 13:11:30
Tagged date : UTC 2014-04-29 13:11:30
mdhd_Duration : 7555600
Audio
ID : 2
Format : AAC
Format/Info : Advanced Audio Codec
Format profile : LC
Codec ID : 40
Duration : 2h 5mn
Source duration : 2h 5mn
Bit rate mode : Variable
Bit rate : 126 Kbps
Maximum bit rate : 526 Kbps
Channel count : 2 channels
Channel positions : Front: L R
Sampling rate : 44.1 KHz
Compression mode : Lossy
Stream size : 113 MiB (46%)
Source stream size : 113 MiB (46%)
Language : English
Encoded date : UTC 2014-04-29 13:11:30
Tagged date : UTC 2014-04-29 13:11:30
mdhd_Duration : 7555634
Скриншоты:
Скачать .torrent

Для того, чтобы скачать торрент-файл

[Profileschool] Александр Талюка - Как начать снимать НЮ? (2014)

с нашего сайта, Вам необходимо Войти на сайт под своим логином! Если у Вас ещё нет логина, тогда Вам нужно сначала Зарегистрироваться!

Как скачивать? · Что такое торрент? · Рейтинг и ограничения

Показать сообщения:    
Ответить на тему

[Profileschool] Александр Талюка - Как начать снимать НЮ? (2014) скачать торрент (torrent), видеоуроки, тренинги, обучающее видео и видеокурсы

Текущее время: Сегодня 03:57

Часовой пояс: GMT + 4



Вы не можете начинать темы
Вы не можете отвечать на сообщения
Вы не можете редактировать свои сообщения
Вы не можете удалять свои сообщения
Вы не можете голосовать в опросах
Вы не можете прикреплять файлы к сообщениям
Вы не можете скачивать файлы