Руслан Максимов - Обучение обработке «Карандашка» (2014)

Ответить на тему
 
Автор Сообщение

Yulya ®

-Руслан Максимов - Обучение обработке «Карандашка» (2014)- Автор (режиссер): Руслан Максимов
Жанр: Обучающие видео-уроки
Продолжительность: 01:39:43
Качество видео: PCRec
Видеокодек: AVC
Битрейт видео: ~2446 kb/s
Размер кадра: 1920x1080
Аудиокодек: AAC
Битрейт аудио: 192 kb/s, 2 Ch
Доп. материалы: Нет
Описание:
Курс по обработке фотографии в фотошопе под карандашный рисунок.
Автор, онлайн обрабатывает портрет на обложке от начала и до конца с подробными комментариями.

MediaInfo:

Код:
Общее
Полное имя                               : C:\Обучение обработке «Карандашка» от Руслана Максимова - 2014.mp4
Формат                                   : MPEG-4
Профиль формата                          : Base Media / Version 2
Идентификатор кодека                     : mp42
Размер файла                             : 1,84 Гбайт
Продолжительность                        : 1 ч. 39 м.
Режим общего битрейта                    : Переменный
Общий поток                              : 2643 Кбит/сек
Дата кодирования                         : UTC 2014-06-25 02:47:07
Дата пометки                             : UTC 2014-06-25 02:47:07
Видео
Идентификатор                            : 2
Формат                                   : AVC
Формат/Информация                        : Advanced Video Codec
Профиль формата                          : [url=mailto:Main@L4.0]Main@L4.0[/url]
Параметр CABAC формата                   : Да
Параметр ReFrames формата                : 3 кадра
Параметр GOP формата                     : M=4, N=15
Идентификатор кодека                     : avc1
Идентификатор кодека/Информация          : Advanced Video Coding
Продолжительность                        : 1 ч. 39 м.
Вид битрейта                             : Переменный
Битрейт                                  : 2446 Кбит/сек
Максимальный битрейт                     : 3000 Кбит/сек
Ширина                                   : 1920 пикселей
Высота                                   : 1080 пикселей
Соотношение сторон                       : 16:9
Режим частоты кадров                     : Постоянный
Частота кадров                           : 25,000 кадров/сек
Стандарт вещания                         : NTSC
Цветовое пространство                    : YUV
Субдискретизация насыщенности            : 4:2:0
Битовая глубина                          : 8 бит
Тип развёртки                            : Прогрессивная
Бит/(Пиксели*Кадры)                      : 0.047
Размер потока                            : 1,70 Гбайт (93%)
Язык                                     : English
Дата кодирования                         : UTC 2014-06-25 02:47:07
Дата пометки                             : UTC 2014-06-25 02:47:07
Аудио
Идентификатор                            : 1
Формат                                   : AAC
Формат/Информация                        : Advanced Audio Codec
Профиль формата                          : LC
Идентификатор кодека                     : 40
Продолжительность                        : 1 ч. 39 м.
Вид битрейта                             : Постоянный
Битрейт                                  : 192 Кбит/сек
Каналы                                   :  channel0
Channel(s)_Original                      : 2 канала
Расположение каналов                     : Front: L R
Частота                                  : 48,0 КГц
Метод сжатия                             : С потерями
Размер потока                            : 137 Мбайт (7%)
Язык                                     : English
Дата кодирования                         : UTC 2014-06-25 02:47:07
Дата пометки                             : UTC 2014-06-25 02:47:07
Скриншоты:
Скачать .torrent

Для того, чтобы скачать торрент-файл

Руслан Максимов - Обучение обработке «Карандашка» (2014)

с нашего сайта, Вам необходимо Войти на сайт под своим логином! Если у Вас ещё нет логина, тогда Вам нужно сначала Зарегистрироваться!

Как скачивать? · Что такое торрент? · Рейтинг и ограничения

Показать сообщения:    
Ответить на тему

Руслан Максимов - Обучение обработке «Карандашка» (2014) скачать торрент (torrent), видеоуроки, тренинги, обучающее видео и видеокурсы

Текущее время: Сегодня 09:02

Часовой пояс: GMT + 4



Вы не можете начинать темы
Вы не можете отвечать на сообщения
Вы не можете редактировать свои сообщения
Вы не можете удалять свои сообщения
Вы не можете голосовать в опросах
Вы не можете прикреплять файлы к сообщениям
Вы не можете скачивать файлы