[Profileschool] Александр Чалдрян - Авторская обработка. Как это сделано? (2014)

Ответить на тему
 
Автор Сообщение

Yulya ®

-[Profileschool] Александр Чалдрян - Авторская обработка. Как это сделано? (2014)- Автор: Александр Чалдрян
Жанр: Обучающие видео
Продолжительность: 01:32:00+01:04:03
Качество видео: PCRec
Видеокодек: mp4
Video: MPEG4 Video (H264) 1280x914 (7:5) 30fps 316kbps
Audio: AAC 44100Hz stereo 53kbps
Описание:
Вопрос «как?» — пожалуй, самый животрепещущий в жизни взрослого человека. Мы знаем, чего хотим достичь, но не понимаем путей достижения цели. Как устроить свою личную жизнь? Как стать миллионером? Как завоевать мир? Как обработать картинку в стиле известного автора? Столько дел, столько дел...
На новом онлайн мастер-классе "Как это сделано" мы не ответим на первые три вопроса, но детально рассмотрим последний! Разберемся с эффектами акварели в фоне, воздуха в кадре и температуры в цвете, применяемые Юлией Петровой в своей обработке. А ещё препарируем технику детализированного осветления Джилл Гринберг и соединим тандем формы и цвета в работах Дэйва Хилла, обращая особое внимание на компоновку планов в его фотокартинах. С этого мастер-класса мы начинаем открывать для вас секреты обработки самых известных фотохудожников мира. Итак, первая серия, добро пожаловать в обработку Джилл Гринберг, Юлии Петровой и Дейва Хилла.
В работе применяются плагины сторонних производителей: Nik software, Alien skin, Tiffen.

MediaInfo

General
Complete name : H:\tutorials\profileschool.ru\Александр Чалдрян - Авторская обработка. Как это сделано\МК\часть 1.mp4
Format : MPEG-4
Format profile : Base Media / Version 2
Codec ID : mp42
File size : 245 MiB
Duration : 1h 32mn
Overall bit rate mode : Variable
Overall bit rate : 373 Kbps
Movie name : Untitled
Encoded date : UTC 2014-01-31 04:52:08
Tagged date : UTC 2014-01-31 04:52:08
Video
ID : 1
Format : AVC
Format/Info : Advanced Video Codec
Format profile : [url=mailto:Baseline@L3.2]Baseline@L3.2[/url]
Format settings, CABAC : No
Format settings, ReFrames : 3 frames
Codec ID : avc1
Codec ID/Info : Advanced Video Coding
Duration : 1h 32mn
Source duration : 1h 32mn
Bit rate : 316 Kbps
Width : 1 280 pixels
Height : 914 pixels
Display aspect ratio : 1.400
Frame rate mode : Variable
Frame rate : 30.000 fps
Minimum frame rate : 30.000 fps
Maximum frame rate : 30.030 fps
Standard : NTSC
Color space : YUV
Chroma subsampling : 4:2:0
Bit depth : 8 bits
Scan type : Progressive
Bits/(Pixel*Frame) : 0.009
Stream size : 208 MiB (85%)
Source stream size : 208 MiB (85%)
Language : English
Encoded date : UTC 2014-01-31 04:52:09
Tagged date : UTC 2014-01-31 04:52:09
mdhd_Duration : 5520134
Audio
ID : 2
Format : AAC
Format/Info : Advanced Audio Codec
Format profile : LC
Codec ID : 40
Duration : 1h 32mn
Source duration : 1h 32mn
Bit rate mode : Variable
Bit rate : 53.7 Kbps
Maximum bit rate : 70.3 Kbps
Channel count : 2 channels
Channel positions : Front: L R
Sampling rate : 44.1 KHz
Compression mode : Lossy
Stream size : 35.3 MiB (14%)
Source stream size : 35.3 MiB (14%)
Language : English
Encoded date : UTC 2014-01-31 04:52:09
Tagged date : UTC 2014-01-31 04:52:09
mdhd_Duration : 5520173
General
Complete name : H:\tutorials\profileschool.ru\Александр Чалдрян - Авторская обработка. Как это сделано\МК\часть 2.mp4
Format : MPEG-4
Format profile : Base Media / Version 2
Codec ID : mp42
File size : 180 MiB
Duration : 1h 4mn
Overall bit rate mode : Variable
Overall bit rate : 393 Kbps
Movie name : Untitled
Encoded date : UTC 2014-01-30 21:45:03
Tagged date : UTC 2014-01-30 21:45:03
Video
ID : 1
Format : AVC
Format/Info : Advanced Video Codec
Format profile : [url=mailto:Baseline@L3.2]Baseline@L3.2[/url]
Format settings, CABAC : No
Format settings, ReFrames : 3 frames
Codec ID : avc1
Codec ID/Info : Advanced Video Coding
Duration : 1h 4mn
Source duration : 1h 4mn
Bit rate : 336 Kbps
Width : 1 280 pixels
Height : 914 pixels
Display aspect ratio : 1.400
Frame rate mode : Variable
Frame rate : 30.000 fps
Minimum frame rate : 30.000 fps
Maximum frame rate : 30.030 fps
Standard : NTSC
Color space : YUV
Chroma subsampling : 4:2:0
Bit depth : 8 bits
Scan type : Progressive
Bits/(Pixel*Frame) : 0.010
Stream size : 154 MiB (86%)
Source stream size : 154 MiB (86%)
Language : English
Encoded date : UTC 2014-01-30 21:45:08
Tagged date : UTC 2014-01-30 21:45:08
mdhd_Duration : 3843033
Audio
ID : 2
Format : AAC
Format/Info : Advanced Audio Codec
Format profile : LC
Codec ID : 40
Duration : 1h 4mn
Source duration : 1h 4mn
Bit rate mode : Variable
Bit rate : 53.7 Kbps
Maximum bit rate : 70.6 Kbps
Channel count : 2 channels
Channel positions : Front: L R
Sampling rate : 44.1 KHz
Compression mode : Lossy
Stream size : 24.6 MiB (14%)
Source stream size : 24.6 MiB (14%)
Language : English
Encoded date : UTC 2014-01-30 21:45:08
Tagged date : UTC 2014-01-30 21:45:08
mdhd_Duration : 3843065
Скриншоты:
Скачать .torrent

Для того, чтобы скачать торрент-файл

[Profileschool] Александр Чалдрян - Авторская обработка. Как это сделано? (2014)

с нашего сайта, Вам необходимо Войти на сайт под своим логином! Если у Вас ещё нет логина, тогда Вам нужно сначала Зарегистрироваться!

Как скачивать? · Что такое торрент? · Рейтинг и ограничения

Показать сообщения:    
Ответить на тему

[Profileschool] Александр Чалдрян - Авторская обработка. Как это сделано? (2014) скачать торрент (torrent), видеоуроки, тренинги, обучающее видео и видеокурсы

Текущее время: Сегодня 08:58

Часовой пояс: GMT + 4



Вы не можете начинать темы
Вы не можете отвечать на сообщения
Вы не можете редактировать свои сообщения
Вы не можете удалять свои сообщения
Вы не можете голосовать в опросах
Вы не можете прикреплять файлы к сообщениям
Вы не можете скачивать файлы