[Profileschool] Алена Полосухина и Александр Чалдрян - МК Предметная съемка 2.0 (2014)

Ответить на тему
 
Автор Сообщение

Yulya ®

-[Profileschool] Алена Полосухина и Александр Чалдрян - МК Предметная съемка 2.0 (2014)- Автор: Алена Полосухина и Александр Чалдрян
Жанр: Обучающие видео
Продолжительность: 02:59:44
Качество видео: PCRec
Видеокодек: Xvid
Битрейт видео: ~1 784 Kbps
Video: Xvid 1600x900 30fps
Audio: MPEG Audio 48000Hz stereo 320kbps
Описание:
Предметы – это лучшие модели для съемки: не устают, не капризничают, терпеливы и послушны. Хотя… Чтобы показать их с наилучшей стороны, иногда приходится потратить много времени и приложить все свои знания и умения. Они не умеют говорить, и задача фотографа – максимально передать их характер. На онлайн мастер-классе вы узнаете, что нужно, чтобы готовая картинка выглядела, как полоса глянцевого журнала? Оборудование и аппаратура – только часть процесса. Не менее важны идея и творческий подход. И, конечно же, маленькие хитрости. Именно об этих хитростях и пойдет разговор на нашем мастер-классе. Как сделать так, чтобы белое было еще белее, блестящее – еще более блестящим, а красивое – еще красивее? Как подчеркнуть форму и характер предмета? Как создать необходимое настроение в картинке?

Содержание:

Что такое имиджевая съемка, чем она отличается от каталожной съемки предметов.
Оборудование, которое нам понадобится.
«Белое-на-белом» – не так страшно, как кажется. Съемка на просветном столе.
Световая кисть – простой способ выйти из сложной ситуации или «палочка-выручалочка»
Световые акценты при съемке ювелирных изделий.
Заморозить движение – просто, три варианта оборудования для выполнения этой задачи. «Заморозим» воду.
Ретушь полученных снимков.

MediaInfo

General
Complete name : H:\........МК Предметная съемка 2.0\МК Предметная съемка 2.0.avi
Format : AVI
Format/Info : Audio Video Interleave
Format profile : OpenDML
File size : 2.66 GiB
Duration : 2h 59mn
Overall bit rate : 2 116 Kbps
Writing application : BandiAviMuxer 1.0
Video
ID : 0
Format : MPEG-4 Visual
Format profile : Simple@L1
Format settings, BVOP : Yes
Format settings, QPel : No
Format settings, GMC : No warppoints
Format settings, Matrix : Default (H.263)
Codec ID : XVID
Codec ID/Hint : XviD
Duration : 2h 59mn
Bit rate : 1 784 Kbps
Width : 1 600 pixels
Height : 900 pixels
Display aspect ratio : 16:9
Frame rate : 30.000 fps
Color space : YUV
Chroma subsampling : 4:2:0
Bit depth : 8 bits
Scan type : Progressive
Compression mode : Lossy
Bits/(Pixel*Frame) : 0.041
Stream size : 2.24 GiB (84%)
Audio
ID : 1
Format : MPEG Audio
Format version : Version 1
Format profile : Layer 2
Codec ID : 50
Duration : 2h 59mn
Bit rate mode : Constant
Bit rate : 320 Kbps
Channel count : 2 channels
Sampling rate : 48.0 KHz
Compression mode : Lossy
Stream size : 411 MiB (15%)
Alignment : Aligned on interleaves
Interleave, duration : 24 ms (0.72 video frame)
Interleave, preload duration : 24 ms
Скриншоты:
Скачать .torrent

Для того, чтобы скачать торрент-файл

[Profileschool] Алена Полосухина и Александр Чалдрян - МК Предметная съемка 2.0 (2014)

с нашего сайта, Вам необходимо Войти на сайт под своим логином! Если у Вас ещё нет логина, тогда Вам нужно сначала Зарегистрироваться!

Как скачивать? · Что такое торрент? · Рейтинг и ограничения

Показать сообщения:    
Ответить на тему

[Profileschool] Алена Полосухина и Александр Чалдрян - МК Предметная съемка 2.0 (2014) скачать торрент (torrent), видеоуроки, тренинги, обучающее видео и видеокурсы

Текущее время: Сегодня 20:47

Часовой пояс: GMT + 4



Вы не можете начинать темы
Вы не можете отвечать на сообщения
Вы не можете редактировать свои сообщения
Вы не можете удалять свои сообщения
Вы не можете голосовать в опросах
Вы не можете прикреплять файлы к сообщениям
Вы не можете скачивать файлы