[Profileschool] Андрей Журавлев - МК Paths - пути в Adobe Photoshop (2014)

Ответить на тему
 
Автор Сообщение

Yulya ®

-[Profileschool] Андрей Журавлев | МК Paths - пути в Adobe Photoshop (2014) PCRec- Автор (режиссер): Андрей Журавлев
Жанр: Обучающие видео
Продолжительность: 03:08:25
Качество видео: PCRec
Видеокодек: MP4
Video: MPEG4 Video 1280x800 25fps 293kbps [Video]
Audio: AAC 44100Hz stereo 149kbps [Audio]
Описание:
- Что такое пути (Path) и для чего они нужны
- Инструменты для работы с путями
- Порядок операций для быстрого построения пути
- Особенности обтравки объектов для последующего вырезания
- Применение путей при создании маски вырезания
- Приемы ускоряющие создание маски для сложных объектов
- Векторная маска слоя (Vector Mask), доработка и применение

MediaInfo

General
Complete name : H:\.........Андрей Журавлев - МК Пути в фотошоп\Видео.mp4
Format : MPEG-4
Format profile : Base Media
Codec ID : isom
File size : 604 MiB
Duration : 3h 8mn
Overall bit rate mode : Variable
Overall bit rate : 448 Kbps
Writing application : AVM.EXE
Video
ID : 1
Format : MPEG-4 Visual
Format profile : Simple@L1
Format settings, BVOP : No
Format settings, QPel : No
Format settings, GMC : No warppoints
Format settings, Matrix : Default (H.263)
Codec ID : 20
Duration : 3h 8mn
Bit rate : 294 Kbps
Width : 1 280 pixels
Height : 800 pixels
Display aspect ratio : 16:10
Frame rate mode : Constant
Frame rate : 25.000 fps
Color space : YUV
Chroma subsampling : 4:2:0
Bit depth : 8 bits
Scan type : Progressive
Compression mode : Lossy
Bits/(Pixel*Frame) : 0.011
Stream size : 396 MiB (66%)
Writing library : Lavc52.72.2
Audio
ID : 2
Format : AAC
Format/Info : Advanced Audio Codec
Format profile : LC
Codec ID : 40
Duration : 3h 8mn
Bit rate mode : Variable
Bit rate : 150 Kbps
Channel count : 2 channels
Channel positions : Front: L R
Sampling rate : 44.1 KHz
Compression mode : Lossy
Stream size : 202 MiB (33%)
Скриншоты:
Скачать .torrent

Для того, чтобы скачать торрент-файл

[Profileschool] Андрей Журавлев - МК Paths - пути в Adobe Photoshop (2014)

с нашего сайта, Вам необходимо Войти на сайт под своим логином! Если у Вас ещё нет логина, тогда Вам нужно сначала Зарегистрироваться!

Как скачивать? · Что такое торрент? · Рейтинг и ограничения

Yerzhan

Не чего себе автор потянул резину аж 03:08:25 по Patch ) поглядим что покажет? )
Показать сообщения:    
Ответить на тему

[Profileschool] Андрей Журавлев - МК Paths - пути в Adobe Photoshop (2014) скачать торрент (torrent), видеоуроки, тренинги, обучающее видео и видеокурсы

Текущее время: Сегодня 04:01

Часовой пояс: GMT + 4



Вы не можете начинать темы
Вы не можете отвечать на сообщения
Вы не можете редактировать свои сообщения
Вы не можете удалять свои сообщения
Вы не можете голосовать в опросах
Вы не можете прикреплять файлы к сообщениям
Вы не можете скачивать файлы