Специалист - JavaScript. Уровень 3в. Серверное программирование на Node.js (2014)

Ответить на тему
 
Автор Сообщение

Yulya ®

-Специалист - JavaScript. Уровень 3в. Серверное программирование на Node.js (2014)- Автор (режиссер): Специалист
Жанр: Программирование
Язык: Русский
Продолжительность: 14.01.45
Качество видео: PCRec
Видеокодек: VC-1/WMV3
Битрейт видео: 75-110 kb/s, 30.0 fps
Размер кадра: 1024x768
Аудиокодек: WMA
Битрейт аудио:103 kb/s, 2ch, 16 bit 44 kHz
Описание:
Видео курс по Node.js от лучшего в России учебного Центра «Специалист» при МГТУ им. Баумана.

Содержание:

Модуль 1. Основы Node.js
Что такое Node.js
Установка Node.js
Обзор V8 JavaScript Engine
Как работает Node.js
Чтение файлов
Создание веб-сервера
Использование веб-сервера
Лабораторная работа: Создание и использование веб-сервера
Модуль 2. События
События JavaScript
Встроенный вызов
Пользовательский вызов
События http-сервера Node.js
Лабораторная работа: Использование событий http-сервера
Пользовательские события Node.js
Лабораторная работа: Использование пользовательских событий
Модуль 3. Потоки
HTTP-метод POST
Использование cURL
Способы обработки запроса
Чтение из файла и запись в файл
Загрузка файла на сервер
Лабораторная работа: Использование потоков
Модуль 4. Модули
Использование модулей
Как создать модуль
Лабораторная работа: Использование модулей
NPM - Node Packaged Modules
Публикация модуля
Семантика версий
Основные команды NPM
Лабораторная работа: Загрузка модулей
Модуль 5. Фреймворк Express
Фреймворк Express
Установка Express
Базовое использование Express
Использование шаблонизаторов
Использование модулей request и url
Лабораторная работа: Использование фреймворка Express
Модуль 6. Socket.IO
Взаимодействие клиент – сервер
Обзор модели работы Comet
Модуль Socket.IO
Совместное использование модулей Express и Socket.IO
Основные методы и свойства Socket.IO
Лабораторная работа: Чат с использованием Express и Socket.IO
Модуль 7. Создание веб-приложения
Основные этапы создания приложения
Создание каркаса приложения
Middleware
Конфигурация приложения
Логирование
Использование шаблонизатора
Использование MongoDB
Обработка ошибок
Использование сеансов
Маршрутизация
Скриншоты:

MediaInfo:

Общее
Полное имя : A:\BOOKS\Видеокурсы\Специалист\CпециалистNodeJs\NODE.js\node_day1\node_day1.wmv
Формат : Windows Media
Размер файла : 375 Мбайт
Продолжительность : 4 ч. 20 м.
Режим общего битрейта : Переменный
Общий поток : 201 Кбит/сек
Максимальный общий битрейт : 1303 Кбит/сек
Название фильма : node_day1
Дата кодирования : UTC 2014-07-29 13:48:36.313
Видео
Идентификатор : 2
Формат : VC-1
Профиль формата : MP@HL
Идентификатор кодека : WMV3
Идентификатор кодека/Информация : Windows Media Video 9
Идентификатор кодека/Подсказка : WMV3
Описание кодека : Windows Media Video 9
Продолжительность : 4 ч. 20 м.
Вид битрейта : Переменный
Битрейт : 78,4 Кбит/сек
Ширина : 1024 пикселя
Высота : 768 пикселей
Соотношение сторон : 4:3
Частота кадров : 30,000 кадров/сек
Цветовое пространство : YUV
Субдискретизация насыщенности : 4:2:0
Битовая глубина : 8 бит
Тип развёртки : Прогрессивная
Метод сжатия : С потерями
Бит/(Пиксели*Кадры) : 0.003
Размер потока : 146 Мбайт (39%)
Язык : English (US)
Аудио
Идентификатор : 1
Формат : WMA
Версия формата : Version 2
Идентификатор кодека : 161
Идентификатор кодека/Информация : Windows Media Audio
Описание кодека : Windows Media Audio 9.2 - VBR Quality 90, 44 kHz, stereo 1-pass VBR
Продолжительность : 4 ч. 20 м.
Вид битрейта : Переменный
Битрейт : 103 Кбит/сек
Каналы : 2 канала
Частота : 44,1 КГц
Битовая глубина : 16 бит
Размер потока : 191 Мбайт (51%)
Язык : English (US)
Скачать .torrent

Для того, чтобы скачать торрент-файл

Специалист - JavaScript. Уровень 3в. Серверное программирование на Node.js (2014)

с нашего сайта, Вам необходимо Войти на сайт под своим логином! Если у Вас ещё нет логина, тогда Вам нужно сначала Зарегистрироваться!

Как скачивать? · Что такое торрент? · Рейтинг и ограничения

Показать сообщения:    
Ответить на тему

Специалист - JavaScript. Уровень 3в. Серверное программирование на Node.js (2014) скачать торрент (torrent), видеоуроки, тренинги, обучающее видео и видеокурсы

Текущее время: Сегодня 20:40

Часовой пояс: GMT + 4



Вы не можете начинать темы
Вы не можете отвечать на сообщения
Вы не можете редактировать свои сообщения
Вы не можете удалять свои сообщения
Вы не можете голосовать в опросах
Вы не можете прикреплять файлы к сообщениям
Вы не можете скачивать файлы