Д.Ю. Козловский - Adobe Photoshop для художников. Школа компьютерной живописи (2013)

Ответить на тему
 
Автор Сообщение

Yulya ®

-Д.Ю. Козловский - Adobe Photoshop для художников. Школа компьютерной живописи (2013)- Автор (режиссер): Д.Ю. Козловский
Жанр: Обучающие видео-уроки
Продолжительность: 14:45:25
Качество видео: PCRec
Видеокодек: AVC
Битрейт видео: ~549 kb/s, 4360 kb/s
Размер кадра: 900x720, 1280x720
Аудиокодек: AAC
Битрейт аудио: 318 kbps, 336 kbps, 2 Ch
Доп. материалы: Есть
Описание:
На кого рассчитан курс? Курс предназначен для тех, кто имеет базовые навыки рисования и хотел бы погрузиться в удивительный мир компьютерной живописи.
Чему мы учим? В ходе лекций слушатели познакомятся с живописным инструментарием программы Adobe Photoshop и узнают о том, как можно использовать его наиболее эффективно. Все полученные знания будут моментально закрепляться в интенсивной практической работе. Задания для практических занятий выстроены по принципу: от простого — к сложному, поэтому даже новички будут чувствовать себя в процессе обучения комфортно, получая знания последовательно и поэтапно. Методики подачи материала, используемые в курсе, прошли длительную проверку временем в Учебном центре Render.ru. На данный момент, мы насчитываем уже сотни выпускников, многие из которых теперь успешно работают в индустрии компьютерной графики. Теперь этот курс стал доступен и в дистанционном формате.

Дополнительная информация:

Требования, предъявляемые к слушателям, поступающим на курс:
1) У слушателей на компьютере должна быть установлена программа Adobe Photoshop (желательно, не ниже версии CS6)
2) Наличие у слушателей базовых навыков рисования
3) Наличие и умение пользоваться графическим планшетом (любым)
4) Стабильное интернет соединение

Об авторе:

Козловский Даниил Юрьевич
Образование:
СПбГАИЖСА (Академия художеств) им. Репина, Санкт-Петербург 2002-2008, факультет: живопись/реставрация Инструктор Центра компьютерной графики Render.ru (с 2009 года)
О себе:
Родился и вырос в Санкт-Петербурге. Всю свою сознательную жизнь занимался изобразительным искусством. Прошёл классическую школу живописи в Лицее им. Б.В. Иогансона (СХШ), а позже и в Академии Художеств им. И.Е. Репина. Но, должен отметить, что мир компьютерной графики увлёк меня окончательно и бесповоротно ещё на первом курсе института. Тогда, я открыл для себя такие программы как Adobe Photoshop и 3ds max и понял, что хочу заниматься именно компьютерным искусством (CG). С тех пор, много работал как фрилансером, так и полноправным сотрудником компании ALS Group, где получил бесценный опыт работы в коллективе в условиях строгого пайплайна. Начиная с 2009 года, стал преподавать 2d курсы в центре Render.ru. Сейчас, работаю на индивидуальной основе, выполняя заказы для западных студий.
Себя я характеризую скорее как «генералист», поскольку мне очень интересны самые различные аспекты CG: от концепт арта, до видео компоузинга, от моделлинга, до анимации, от метт пейнтинга, до VFX. Лично моё мнение, что компьютерный художник обязан широко смотреть на свою сферу деятельности, не замыкаясь на чём-то одном. Всем своим ученикам я всегда советую развиваться во многих направлениях, чтобы в итоге найти свой уникальный стиль и место в искусстве.
Основной задачей в нашем совместном изучении я ставлю многоплановость подхода. На мой взгляд, творческий потенциал любого художника должен быть максимально широк. Не стоит замыкаться на одном лишь нюансе в работе. Именно знания комплекса разнообразных техник позволит вам работать эффективней. Курс Matte Painting включает в себя как создание статического метт пейнинга (1я часть), так и анимированного (2я часть), что, на мой взгляд, открывает для слушателей более полную картину подобной деятельности художника в мире компьютерной графики.

Программа курса:

Занятие 1
Теоретическая лекция:
Знакомство с программой Adobe Photoshop CS6
Разбор интерфейса и палитры слоев
Базовые навыки работы с основными инструментами рисования
Практика: Упражнения для постановки руки на планшет
Рисование фрукта
Занятие 2
Теоретическая лекция:
Инструменты трансформаций
Инструменты для создания выделений
Практика: Натюрморт (рисование черно-белой гризайли)
Занятие 3
Теоретическая лекция:
Цветовые каналы изображения
Работа с инструментами для цветокоррекции
Практика: Натюрморт (создание цветового решения)
Занятие 4
Теоретическая лекция:
Текстуры и текстурирование
Работа с масками слоев
Практика: Натюрморт (работа над деталями с помощью текстур)
Занятие 5
Теоретическая лекция:
Работа с кистями (часть — 1)
Работа с базовыми профилями для кисти и создание профиля на основе изображения
Детальный разбор настроек для кисти в меню Brush
Сохранение собственных библиотек кистей
Практика: Беседа об основных законах композиции
Концепт арт среды: Город магов (создание подмалевка)
Занятие 6
Теоретическая лекция:
Работа с кистями (часть — 2)
Работа профилями кистей, имитирующих реальные инструменты рисования: кисть с динамическим ворсом, грифель и аэрограф
Разбор инструмента Mixer Brush
Практика: Концепт арт среды: Город магов (рисование деталей пейзажа)
Занятие 7
Теоретическая лекция:
Видение художника: форма и свет
Практика: Концепт арт среды: Город магов (завершение и пост обработка)
Занятие 8
Теоретическая лекция:
Инструменты для создания текста
Эффекты слоев
Практика: Концепт арт персонажа
Занятие 9
Теоретическая лекция:
Рассмотрение принципов работы с фильтрами
Смарт объекты, смарт фильтры
Практика: Концепт арт персонажа
Занятие 10
Теоретическая лекция:
Инструменты для векторного рисования
Работа с палитрой Paths
Практика: Концепт арт персонажа
Занятие 11
Теоретическая лекция:
Создание удобной рабочей среды программы: кастомизация интерфейса, назначение горячих клавиш, настройки программы
Практика: Концепт арт персонажа
Бонусы

MediaInfo:

Код:
Общее
Полное имя                               : C:\Козловский Д.Ю. - Adobe Photoshop для художников - 2013\10-11, бонусы\10\PFA_Class_10_Theory_01.mp4
Формат                                   : MPEG-4
Профиль формата                          : Base Media / Version 2
Идентификатор кодека                     : mp42
Размер файла                             : 209 Мбайт
Продолжительность                        : 33 м.
Режим общего битрейта                    : Переменный
Общий поток                              : 869 Кбит/сек
Название фильма                          : Lecture_01_1v
Дата кодирования                         : UTC 2013-02-12 10:56:30
Дата пометки                             : UTC 2013-02-12 10:56:30
Видео
Идентификатор                            : 1
Формат                                   : AVC
Формат/Информация                        : Advanced Video Codec
Профиль формата                          : [url=mailto:Main@L3.1]Main@L3.1[/url]
Параметр CABAC формата                   : Да
Параметр ReFrames формата                : 3 кадра
Параметр GOP формата                     : M=1, N=30
Идентификатор кодека                     : avc1
Идентификатор кодека/Информация          : Advanced Video Coding
Продолжительность                        : 33 м.
Продолжительность оригинала              : 33 м.
Битрейт                                  : 549 Кбит/сек
Ширина                                   : 900 пикселей
Высота                                   : 720 пикселей
Соотношение сторон                       : 5:4
Режим частоты кадров                     : Переменный
Частота кадров                           : 30,000 кадров/сек
Минимальная частота кадров               : 30,000 кадров/сек
Максимальная частота кадров              : 30,030 кадров/сек
Стандарт вещания                         : NTSC
Цветовое пространство                    : YUV
Субдискретизация насыщенности            : 4:2:0
Битовая глубина                          : 8 бит
Тип развёртки                            : Прогрессивная
Бит/(Пиксели*Кадры)                      : 0.028
Размер потока                            : 132 Мбайт (63%)
Размер потока оригинала                  : 132 Мбайт (63%)
Язык                                     : English
Дата кодирования                         : UTC 2013-02-12 10:56:30
Дата пометки                             : UTC 2013-02-12 10:56:30
mdhd_Duration                            : 2018333
Аудио
Идентификатор                            : 2
Формат                                   : AAC
Формат/Информация                        : Advanced Audio Codec
Профиль формата                          : LC
Идентификатор кодека                     : 40
Продолжительность                        : 33 м.
Продолжительность оригинала              : 33 м.
Вид битрейта                             : Переменный
Битрейт                                  : 318 Кбит/сек
Максимальный битрейт                     : 526 Кбит/сек
Каналы                                   : 2 канала
Расположение каналов                     : Front: L R
Частота                                  : 44,1 КГц
Метод сжатия                             : С потерями
Размер потока                            : 76,4 Мбайт (37%)
Размер потока оригинала                  : 76,4 Мбайт (37%)
Язык                                     : English
Дата кодирования                         : UTC 2013-02-12 10:56:30
Дата пометки                             : UTC 2013-02-12 10:56:30
mdhd_Duration                            : 2018371
Код:
Общее
Полное имя                               : C:\Козловский Д.Ю. - Adobe Photoshop для художников - 2013\10-11, бонусы\бонусы\Flying_Fishes_TheMakingOf_01.mp4
Формат                                   : MPEG-4
Профиль формата                          : Base Media / Version 2
Идентификатор кодека                     : mp42
Размер файла                             : 327 Мбайт
Продолжительность                        : 9 м. 45 с.
Режим общего битрейта                    : Переменный
Общий поток                              : 4681 Кбит/сек
Название фильма                          : Flying_Fishes_TheMakingOf_01
Дата кодирования                         : UTC 2013-02-26 18:04:10
Дата пометки                             : UTC 2013-02-26 18:04:10
Видео
Идентификатор                            : 1
Формат                                   : AVC
Формат/Информация                        : Advanced Video Codec
Профиль формата                          : [url=mailto:Main@L3.1]Main@L3.1[/url]
Параметр CABAC формата                   : Да
Параметр ReFrames формата                : 3 кадра
Параметр GOP формата                     : M=1, N=30
Идентификатор кодека                     : avc1
Идентификатор кодека/Информация          : Advanced Video Coding
Продолжительность                        : 9 м. 45 с.
Продолжительность оригинала              : 9 м. 45 с.
Битрейт                                  : 4360 Кбит/сек
Ширина                                   : 1280 пикселей
Высота                                   : 720 пикселей
Соотношение сторон                       : 16:9
Режим частоты кадров                     : Переменный
Частота кадров                           : 30,000 кадров/сек
Минимальная частота кадров               : 30,000 кадров/сек
Максимальная частота кадров              : 30,030 кадров/сек
Стандарт вещания                         : NTSC
Цветовое пространство                    : YUV
Субдискретизация насыщенности            : 4:2:0
Битовая глубина                          : 8 бит
Тип развёртки                            : Прогрессивная
Бит/(Пиксели*Кадры)                      : 0.158
Размер потока                            : 304 Мбайт (93%)
Размер потока оригинала                  : 304 Мбайт (93%)
Язык                                     : English
Дата кодирования                         : UTC 2013-02-26 18:04:10
Дата пометки                             : UTC 2013-02-26 18:04:10
mdhd_Duration                            : 585733
Аудио
Идентификатор                            : 2
Формат                                   : AAC
Формат/Информация                        : Advanced Audio Codec
Профиль формата                          : LC
Идентификатор кодека                     : 40
Продолжительность                        : 9 м. 45 с.
Продолжительность оригинала              : 9 м. 45 с.
Вид битрейта                             : Переменный
Битрейт                                  : 318 Кбит/сек
Максимальный битрейт                     : 526 Кбит/сек
Каналы                                   : 2 канала
Расположение каналов                     : Front: L R
Частота                                  : 44,1 КГц
Метод сжатия                             : С потерями
Размер потока                            : 22,2 Мбайт (7%)
Размер потока оригинала                  : 22,2 Мбайт (7%)
Язык                                     : English
Дата кодирования                         : UTC 2013-02-26 18:04:10
Дата пометки                             : UTC 2013-02-26 18:04:10
mdhd_Duration                            : 585770
Скриншоты:
Скачать .torrent

Для того, чтобы скачать торрент-файл

Д.Ю. Козловский - Adobe Photoshop для художников. Школа компьютерной живописи (2013)

с нашего сайта, Вам необходимо Войти на сайт под своим логином! Если у Вас ещё нет логина, тогда Вам нужно сначала Зарегистрироваться!

Как скачивать? · Что такое торрент? · Рейтинг и ограничения

pah

Дякую
Показать сообщения:    
Ответить на тему

Д.Ю. Козловский - Adobe Photoshop для художников. Школа компьютерной живописи (2013) скачать торрент (torrent), видеоуроки, тренинги, обучающее видео и видеокурсы

Текущее время: Сегодня 13:40

Часовой пояс: GMT + 4



Вы не можете начинать темы
Вы не можете отвечать на сообщения
Вы не можете редактировать свои сообщения
Вы не можете удалять свои сообщения
Вы не можете голосовать в опросах
Вы не можете прикреплять файлы к сообщениям
Вы не можете скачивать файлы