Profileschool - Маски. Практика применения (2014)

Ответить на тему
 
Автор Сообщение

Yulya ®

-Profileschool - Маски. Практика применения (2014)- Автор (режиссер): "profileschool"
Жанр: Мастер-класс
Преподаватель: Андрей Журавлев
Продолжительность: 04:10:07
Качество видео: PCRec
Видеокодек: MPEG4 Video
Битрейт видео: ~25fps 323kbps
Размер кадра: 1280x800
Аудиокодек: AAC
Битрейт аудио: 44100Hz stereo 127kbps
Доп. материалы: Имеются
Описание:
В это занятие вошли лучшие материалы из предыдущих мастер классов «Masks. Работа с масками.» и «Masks 2.0. Практика применения.» Мы кратко поговорим о том, что такое маска, а потом перейдем к самому интересному — как сделать качественную маску максимально быстро с минимальными затратами ручного труда. Обсудим как в каналах изображения найти заготовку для маски, как доработать ее кривыми и фильтрами, какиме инструменты ручного редактирования лучше использовать, как смешать несколько заготовок и какие режимы наложения для этого лучше использовать. Посмотрим на формализованные приемы, позволяющие получить маску без долгих размышлений.
Параллельно будем разбирать как применять те или иные маски. Тема практического применения масок неисчерпаема. Какие маски лучше подходят к конкретным приемам обработки? Как они будут меняться в зависимости от настроек инструментов? Как ускорить выполнение стандартных операций? Какие приемы используются при создании масок? Одним словом, мы предлагаем вам «заглянуть через плечо» специалиста и познакомиться с приемами его работы.

Дополнительная информация:

Программа мастер-класса
-Что такое маска слоя
-Создание маски из отдельного канала
-Доработка маски кривыми и ручными инструментами
-Использование нескольких каналов для создания маски
-Способ недиструктивного создания масок
-Создание маски цветовой насыщенности
-Маска насыщенности при работе с кривыми в RGB и Lab
-Маска для выделения отдельного диапазона цветовых тонов
-Повышение насыщенности, усиление резкости и яркостная маска
-Маска из канала K при работе в RGB и CMYK
-Маска вырезания для объекта со сложными границами
-Искусственное изменение ГРИП

MI

Общее
Полное имя : D:\Торренты\maski\MK_Masks_Practise.mp4
Формат : MPEG-4
Профиль формата : Base Media
Идентификатор кодека : isom
Размер файла : 815 Мбайт
Продолжительность : 4 ч. 10 м.
Режим общего битрейта : Переменный
Общий поток : 455 Кбит/сек
Программа кодирования : Lavf52.32.0
Видео
Идентификатор : 1
Формат : MPEG-4 Visual
Профиль формата : Simple@L1
Параметр BVOP формата : Нет
Параметр QPel формата : Нет
Параметр GMC формата : Без точки перехода
Параметр матрицы формата : Default (H.263)
Идентификатор кодека : 20
Продолжительность : 4 ч. 10 м.
Битрейт : 323 Кбит/сек
Ширина : 1280 пикселей
Высота : 800 пикселей
Соотношение сторон : 1,600
Режим частоты кадров : Переменный
Частота кадров : 10,000 кадров/сек
Минимальная частота кадров : 8,333 кадров/сек
Максимальная частота кадров : 25,000 кадров/сек
Цветовое пространство : YUV
Субдискретизация насыщенности : 4:2:0
Битовая глубина : 8 бит
Тип развёртки : Прогрессивная
Метод сжатия : С потерями
Бит/(Пиксели*Кадры) : 0.032
Размер потока : 579 Мбайт (71%)
Библиотека кодирования : Lavc52.22.3
Аудио
Идентификатор : 2
Формат : AAC
Формат/Информация : Advanced Audio Codec
Профиль формата : LC
Идентификатор кодека : 40
Продолжительность : 4 ч. 10 м.
Вид битрейта : Переменный
Битрейт : 127 Кбит/сек
Каналы : 2 канала
Расположение каналов : Front: L R
Частота : 44,1 КГц
Метод сжатия : С потерями
Размер потока : 229 Мбайт (28%)
Скриншоты:
Скачать .torrent

Для того, чтобы скачать торрент-файл

Profileschool - Маски. Практика применения (2014)

с нашего сайта, Вам необходимо Войти на сайт под своим логином! Если у Вас ещё нет логина, тогда Вам нужно сначала Зарегистрироваться!

Как скачивать? · Что такое торрент? · Рейтинг и ограничения

Показать сообщения:    
Ответить на тему

Profileschool - Маски. Практика применения (2014) скачать торрент (torrent), видеоуроки, тренинги, обучающее видео и видеокурсы

Текущее время: Сегодня 06:22

Часовой пояс: GMT + 4



Вы не можете начинать темы
Вы не можете отвечать на сообщения
Вы не можете редактировать свои сообщения
Вы не можете удалять свои сообщения
Вы не можете голосовать в опросах
Вы не можете прикреплять файлы к сообщениям
Вы не можете скачивать файлы