Profileschool - Lightroom для фотографа (2014)

Ответить на тему
 
Автор Сообщение

Yulya ®

-Profileschool - Lightroom для фотографа (2014)- Автор (режиссер): "profileschool"
Жанр: Обучающий курс
Преподаватель: Дмитрий Шатров
Продолжительность: 18:41:39
Качество видео: PCRec
Видеокодек: AVC
Битрейт видео: ~15fps 425kbps
Размер кадра: 1120x680
Аудиокодек: AAC
Битрейт аудио: 44100Hz stereo 53kbps
Доп.материалы: Имеются
Описание:
Это авторский онлайн курс фотографа Дмитрия Шатрова, в котором преподаватель не просто поделится с вами личными наработками и авторскими «фишками», а научит вас дисциплине обработки, покажет полный цикл от импорта RAW до финального экспорта картинки в JPG/TIF. На этом курсе вы совместите изучение авторского подхода к обработке фотографий и инструментария Adobe Lightroom. Курс создан фотографом для фотографов, поэтому вы будете учиться использовать программу исключительно как прикладной инструментарий фотографа.
Вы научитесь обходиться только средствами Lightroom, а также разберетесь с теми "сложными" ситуациями, когда Photoshop необходим. Преподаватель покажет, как коснуться Photoshop без его детального изучения.

Дополнительная информация:

Для кого курс?
Вы опытный фотограф? Новичок, который только что взял камеру и ужаснулся пулеметным лентам отснятых фотографий? Для участника курса это не важно, каждый найдет для себя что-то новое. Программа построена по принципу «от простого к сложному», так, чтобы в процесс втянулись все, вне зависимости от опыта. Те же, кто снимает и обрабатывает давно, смогут увидеть как это делает автор. Во время курса, программа Adobe Lightroom будет рассматриваться прежде всего как прикладной инструментарий фотографа. Автор курса покажет собственный производственный цикл с подробным разбором каждого шага, объясняя, что, зачем и почему и давая теоретические отсылки по мере необходимости.
Чему вы научитесь?
Во время курса вы изучите инструментарий, с которым автор работает ежедневно на протяжении многих лет. Разберетесь с интерфейсом, авторскими пресетами и особенностями того или иного действия. Научитесь обрабатывать фотографии как штучно, так и пакетно. Рассмотрите «сложные» ситуации, когда необходима интеграция с Photoshop и многое, многое другое. Итак, вы научитесь:
• Дисциплине обработки и пониманию того, что именно нужно улучшить в исходнике.
• Понимать и использовать инструментарий обработки RAW-файлов в Adobe Lightroom.
• Полному рабочему циклу обработки с авторскими приемами.
• Организовывать собственное хранилище файлов с быстрым поиском.
• Использовать полезные клавиатурные сокращения.
Почему Adobe Lightroom?
Интуитивно понятный интерфейс и удобство работы независимо от того, сделали вы один кадр или храните коллекцию из 500 000 фотографий, ускоряют процесс обработки на несколько порядков. С каталогизатором вы забудете о невнятной куче разбросанных по папкам файлов, превратив их в удобную для работы библиотеку, что вместе со знанием всех возможностей обработки RAW-файлов, позволит вам создать свою Маленькую Фотографическую Империю. Присоединяйтесь!
Автоматизация обработки
Готовя материалы для курса, автор проанализировал типовые шаги в собственной обработке, и оказалось, что многие рутинные действия можно доверить автоматике без потери качества, тем самым избежав ненужных повторов в действиях. Переведя эти шаги в серию пресетов, он получил ускорение процесса обработки в несколько раз. На курсе вы будете использовать эти авторские пресеты и научитесь создавать свои собственные.
Домашние задания
В качестве домашних заданий мы не будем обрабатывать некие синтетические, оторванные от реальности примеры вроде фотографий кирпичной стены. Для вас заготовлена целая серия RAW-снимков, сделанных автором по всему миру – от гималайских треков до европейских городов. Горный пейзаж и жанровый портрет, ночная съемка и контрастный белый снег, шероховатая проработка фактуры и мягкий рассветный свет – для уроков подобраны максимально разноплановые ситуации.-

Программа курса

MI

Общее
Полное имя : D:\Торренты\Lightroom для фотографа\Л2\Урок 2\Урок 2.mp4
Формат : MPEG-4
Профиль формата : Base Media / Version 2
Идентификатор кодека : mp42
Размер файла : 417 Мбайт
Продолжительность : 1 ч. 59 м.
Общий поток : 486 Кбит/сек
Дата кодирования : UTC 2014-06-17 15:25:36
Дата пометки : UTC 2014-06-17 15:25:36
Видео
Идентификатор : 1
Формат : AVC
Формат/Информация : Advanced Video Codec
Профиль формата : [url=mailto:High@L4.0]High@L4.0[/url]
Параметр CABAC формата : Да
Параметр ReFrames формата : 4 кадра
Идентификатор кодека : avc1
Идентификатор кодека/Информация : Advanced Video Coding
Продолжительность : 1 ч. 59 м.
Продолжительность оригинала : 1 ч. 59 м.
Вид битрейта : Переменный
Битрейт : 425 Кбит/сек
Ширина : 1120 пикселей
Высота : 622 пикселя
Соотношение сторон : 16:9
Режим частоты кадров : Постоянный
Частота кадров : 15,000 кадров/сек
Цветовое пространство : YUV
Субдискретизация насыщенности : 4:2:0
Битовая глубина : 8 бит
Тип развёртки : Прогрессивная
Бит/(Пиксели*Кадры) : 0.041
Размер потока : 369 Мбайт (89%)
Размер потока оригинала : 369 Мбайт (89%)
Язык : English
Дата кодирования : UTC 2014-06-17 15:25:36
Дата пометки : UTC 2014-06-17 15:25:36
mdhd_Duration : 7207642
Основные цвета : BT.709
Характеристики трансфера : BT.709
Коэффициенты матрицы : BT.709
Аудио
Идентификатор : 2
Формат : AAC
Формат/Информация : Advanced Audio Codec
Профиль формата : LC
Идентификатор кодека : 40
Продолжительность : 1 ч. 59 м.
Продолжительность оригинала : 1 ч. 59 м.
Вид битрейта : Постоянный
Битрейт : 53,3 Кбит/сек
Каналы : 2 канала
Расположение каналов : Front: L R
Частота : 44,1 КГц
Метод сжатия : С потерями
Размер потока : 45,9 Мбайт (11%)
Размер потока оригинала : 45,9 Мбайт (11%)
Язык : English
Дата кодирования : UTC 2014-06-17 15:25:36
Дата пометки : UTC 2014-06-17 15:25:36
mdhd_Duration : 7222876
Скриншоты:
Скачать .torrent

Для того, чтобы скачать торрент-файл

Profileschool - Lightroom для фотографа (2014)

с нашего сайта, Вам необходимо Войти на сайт под своим логином! Если у Вас ещё нет логина, тогда Вам нужно сначала Зарегистрироваться!

Как скачивать? · Что такое торрент? · Рейтинг и ограничения

Показать сообщения:    
Ответить на тему

Profileschool - Lightroom для фотографа (2014) скачать торрент (torrent), видеоуроки, тренинги, обучающее видео и видеокурсы

Текущее время: Сегодня 19:41

Часовой пояс: GMT + 4



Вы не можете начинать темы
Вы не можете отвечать на сообщения
Вы не можете редактировать свои сообщения
Вы не можете удалять свои сообщения
Вы не можете голосовать в опросах
Вы не можете прикреплять файлы к сообщениям
Вы не можете скачивать файлы