CyberBionic Systematics - Вебинар на тему "Асинхронное программирование в JavaScript. Promise & Deferred" (2014)

Ответить на тему
 
Автор Сообщение

Yulya ®

-CyberBionic Systematics - Вебинар на тему "Асинхронное программирование в JavaScript. Promise & Deferred" (2014)- Автор (режиссер): CyberBionic Systematics
Жанр: Видеоурок
Продолжительность: 01:35:08
Сайт производителя:http://edu.cbsystematics.com/
Качество видео: DVDRip
Видеокодек: AVC1/H.264
Битрейт видео: ~50 Kbps
Размер кадра: 1280*720
Аудиокодек: AAC
Битрейт аудио: 44,100 Hz, 2 Ch, 16 bits, 1411 Kbps
Описание:
Программа:
Что такое Deferred и Promise (Promises/A+ спецификация)
Применение Deferred и Promise, сравнение с callback функциями
Использование Promise ECMAScript 6
Использование Deferred (библиотека jQuery)
Короткий обзор других библиотек
Ведущий: Дмитрий Охрименко, тренер-консультант по построению распределенных и веб-ориентированных приложений. Сертифицированный специалист Microsoft (MCTS, MCPD, MCT).
Для кого: для опытных веб-разработчиков. Обязательно знание JavaScript.

MediaInfo

Формат : MPEG-4
Профиль формата : Base Media / Version 2
Идентификатор кодека : mp42
Размер файла : 174 Мбайт
Продолжительность : 1 ч. 35 м.
Режим общего битрейта : Переменный
Общий поток : 256 Кбит/сек
Дата кодирования : UTC 2014-07-31 12:46:17
Дата пометки : UTC 2014-07-31 12:46:17
Видео
Идентификатор : 1
Формат : AVC
Формат/Информация : Advanced Video Codec
Профиль формата : [url=mailto:Main@L3.1]Main@L3.1[/url]
Параметр CABAC формата : Да
Параметр ReFrames формата : 3 кадра
Параметр GOP формата : M=1, N=75
Идентификатор кодека : avc1
Идентификатор кодека/Информация : Advanced Video Coding
Продолжительность : 1 ч. 35 м.
Продолжительность оригинала : 1 ч. 35 м.
Вид битрейта : Переменный
Битрейт : 128 Кбит/сек
Ширина : 1280 пикселей
Высота : 720 пикселей
Соотношение сторон : 16:9
Режим частоты кадров : Переменный
Частота кадров : 15,000 кадров/сек
Минимальная частота кадров : 15,000 кадров/сек
Максимальная частота кадров : 15,008 кадров/сек
Цветовое пространство : YUV
Субдискретизация насыщенности : 4:2:0
Битовая глубина : 8 бит
Тип развёртки : Прогрессивная
Бит/(Пиксели*Кадры) : 0.009
Размер потока : 87,0 Мбайт (50%)
Размер потока оригинала : 87,0 Мбайт (50%)
Язык : English
Дата кодирования : UTC 2014-07-31 12:46:20
Дата пометки : UTC 2014-07-31 12:46:20
mdhd_Duration : 5708667
Аудио
Идентификатор : 2
Формат : AAC
Формат/Информация : Advanced Audio Codec
Профиль формата : LC
Идентификатор кодека : 40
Продолжительность : 1 ч. 35 м.
Продолжительность оригинала : 1 ч. 35 м.
Вид битрейта : Переменный
Битрейт : 126 Кбит/сек
Максимальный битрейт : 244 Кбит/сек
Каналы : 2 канала
Расположение каналов : Front: L R
Частота : 44,1 КГц
Метод сжатия : С потерями
Размер потока : 85,5 Мбайт (49%)
Размер потока оригинала : 85,5 Мбайт (49%)
Язык : English
Дата кодирования : UTC 2014-07-31 12:46:20
Дата пометки : UTC 2014-07-31 12:46:20
mdhd_Duration : 5708696
Скриншоты:
Скачать .torrent

Для того, чтобы скачать торрент-файл

CyberBionic Systematics - Вебинар на тему "Асинхронное программирование в JavaScript. Promise & Deferred" (2014)

с нашего сайта, Вам необходимо Войти на сайт под своим логином! Если у Вас ещё нет логина, тогда Вам нужно сначала Зарегистрироваться!

Как скачивать? · Что такое торрент? · Рейтинг и ограничения

Показать сообщения:    
Ответить на тему

CyberBionic Systematics - Вебинар на тему "Асинхронное программирование в JavaScript. Promise & Deferred" (2014) скачать торрент (torrent), видеоуроки, тренинги, обучающее видео и видеокурсы

Текущее время: Сегодня 10:04

Часовой пояс: GMT + 4



Вы не можете начинать темы
Вы не можете отвечать на сообщения
Вы не можете редактировать свои сообщения
Вы не можете удалять свои сообщения
Вы не можете голосовать в опросах
Вы не можете прикреплять файлы к сообщениям
Вы не можете скачивать файлы