Максим Басманов - Лаборатория Lightroom (2014)

Ответить на тему
 
Автор Сообщение

Yulya ®

-Максим Басманов - Лаборатория Lightroom (2014)- Автор: Максим Басманов
Жанр: Обучающее видео
Продолжительность: ~13 часов
Качество видео: [unpacked]
Видеокодек: H.264
Битрейт видео: ~872 Kbps
Размер кадра: 1280*720
Аудиокодек: AAC
Битрейт аудио: 126 Kbps
Версия программы: Adobe Lightroom 5.4-5.6
Описание:
Lightroom – потрясающая программа для фотографов, которые ценят своё время и больше всего любят снимать, а не тратить кучу времени на постобработку фотографий. В этом курсе я расскажу, как вам сэкономить время и делать удивительную ретушь, цветокоррекцию, тонированние фотографий и многое другое без всякого Photoshop. Только Lightroom.
Это пошаговый видеокурс, который состоит из 110-ти уроков длительностью от 5 до 40 минут каждый. Большинство уроков — это скринкасты (видео, записанное с экрана компьютера), где я показываю, что и как нужно делать, какие кнопки нажимать и почему, чтобы полностью реализовать все возможности программы.
+Бонусы
Скоростная обработка фотографий в Lightroom
Секреты Lightroom
Lightroom на ipad

МедиаИнфо:

General
Complete name : G:\Video_G\Басманов Максим - Лаборатория Lightroom (2014)\lessons\14-4\14-4.mp4
Format : MPEG-4
Format profile : Base Media / Version 2
Codec ID : mp42
File size : 49.6 MiB
Duration : 6mn 56s
Overall bit rate mode : Variable
Overall bit rate : 1 000 Kbps
Encoded date : UTC 2014-06-30 07:54:56
Tagged date : UTC 2014-06-30 07:54:56
Video
ID : 1
Format : AVC
Format/Info : Advanced Video Codec
Format profile : [url=mailto:Main@L3.1]Main@L3.1[/url]
Format settings, CABAC : Yes
Format settings, ReFrames : 3 frames
Codec ID : avc1
Codec ID/Info : Advanced Video Coding
Duration : 6mn 56s
Source duration : 6mn 56s
Bit rate : 872 Kbps
Width : 1 280 pixels
Height : 720 pixels
Display aspect ratio : 16:9
Frame rate mode : Variable
Frame rate : 30.000 fps
Minimum frame rate : 30.000 fps
Maximum frame rate : 30.030 fps
Standard : NTSC
Color space : YUV
Chroma subsampling : 4:2:0
Bit depth : 8 bits
Scan type : Progressive
Bits/(Pixel*Frame) : 0.032
Stream size : 43.3 MiB (87%)
Source stream size : 43.3 MiB (87%)
Language : English
Encoded date : UTC 2014-06-30 07:54:56
Tagged date : UTC 2014-06-30 07:54:56
mdhd_Duration : 416267
Audio
ID : 2
Format : AAC
Format/Info : Advanced Audio Codec
Format profile : LC
Codec ID : 40
Duration : 6mn 56s
Source duration : 6mn 56s
Bit rate mode : Variable
Bit rate : 126 Kbps
Maximum bit rate : 203 Kbps
Channel count : 2 channels
Channel positions : Front: L R
Sampling rate : 44.1 KHz
Compression mode : Lossy
Stream size : 6.24 MiB (13%)
Source stream size : 6.24 MiB (13%)
Language : English
Encoded date : UTC 2014-06-30 07:54:56
Tagged date : UTC 2014-06-30 07:54:56
mdhd_Duration : 416311
Скриншоты:
Скачать .torrent

Для того, чтобы скачать торрент-файл

Максим Басманов - Лаборатория Lightroom (2014)

с нашего сайта, Вам необходимо Войти на сайт под своим логином! Если у Вас ещё нет логина, тогда Вам нужно сначала Зарегистрироваться!

Как скачивать? · Что такое торрент? · Рейтинг и ограничения

Показать сообщения:    
Ответить на тему

Максим Басманов - Лаборатория Lightroom (2014) скачать торрент (torrent), видеоуроки, тренинги, обучающее видео и видеокурсы

Текущее время: Сегодня 00:18

Часовой пояс: GMT + 4



Вы не можете начинать темы
Вы не можете отвечать на сообщения
Вы не можете редактировать свои сообщения
Вы не можете удалять свои сообщения
Вы не можете голосовать в опросах
Вы не можете прикреплять файлы к сообщениям
Вы не можете скачивать файлы