Артем Лукьянов - Супер Cinema 4D (2014)

Ответить на тему
 
Автор Сообщение

Yulya ®

-Артем Лукьянов - Супер Cinema 4D (2014)- Автор (режиссер): Артем Лукьянов
Жанр: Обучающие видеоматериалы
Продолжительность: 30:30:00
Качество видео: PCRec
Видеокодек: MP42
Битрейт видео: ~MSMPEG4v2
Размер кадра: 1280x720 30fps
Аудиокодек: MP3
Битрейт аудио: MP3 44100Hz stereo 192kbps
Описание:
«Супер Cinema 4D»
Мы, Артем Лукьянов, Марсель Фатхутдинов и Иван Безруков создавая этот курс, мы старались делать видеоуроки ёмкими по наличию в них необходимой информа-ции и одновременно с этим легкими для восприятия. И нам, кажется, это удалось. Курс вобрал в себя энергетику всей нашей команды и является таким же качественным, как и первый наш продукт.
Почему мы уверены, что навыки работы с 3D-графикой пригодятся вам в жизни?
Потому что современный мир уже невозможно представить без 3D-графики. По-смотрите вокруг. Она проникла во многие области жизни человека и теперь уже останется в них навсегда. А значит, получив навыки работы с трёхмерной графикой, вы приобретете творческую профессию на всю жизнь.

Состав:

Супер Cinema 4D:
1. 3D принтер
2. Огонь, дым, взрывы в Cinema 4D
3. Частицы в Cinema 4D
4. Волосы в Cinema 4D
5. Динамика в Cinema 4D
6. Как передать сцену из Cinema 4D в After Effects
7. SCinema4D
Видеоуроки с ютуба:
1. Camera Mapping в Cinema 4D (HD)
2. Анимация 3D логотипа в Cinema 4D. (HD)
3. Анимация текста в Cinema 4D (HD)
4. Брызги крови в 3D (Cinema 4D, RealFlow). (HD)
5. Внедряем 3D графику в отснятое видео. (HD)
6. Динамические текстуры в Cinema 4D. (HD)
7. Дождь и снег в Cinema 4D. (HD)
8. Из Cinema 4D в After Effects без ошибок! (HD)
9. Капля хрома в Cinema 4D. (HD)
10. Классная композиция в стиле макрофото в Cinema 4D. (HD)
11. Лёгкая работа с проектами Cinema 4D в After Effects при помощи плагина CINEWARE. (HD)
12. Моделирование низкополигонального ландшафта в Cinema 4D (HD)
13. Молекулы вируса в Cinema 4D. (HD)
14. Новогодняя композиция в Cinema 4D. (HD)
15. Обзор HDRI Studio Pack. (HD)
16. Океан в Cinema 4D (HD)
17. Плагин Greebler для Cinema 4D. (HD)
18. Подповерхностное свечение в Cinema 4D (HD)
19. Продвинутый метод создания материалов в Cinema 4D. (HD)
20. Простое моделирование в Cinema 4D. (HD)
21. Разрушение объектов в Cinema 4D. (HD)
22. Растения, листья, деревья в Cinema 4D (HD)
23. Рендер в Cinema 4D. (HD)
24. Риггинг персонажа в Cinema 4D (HD)
25. Саунд эффектор в Cinema 4D (HD)
26. Симуляция жидкости в Cinema 4D. (HD)
27. Сногшибательный взрыв в Cinema 4D (пламя, дым) (HD)
28. Создание 3D логотипа в Cinema 4D (HD)
29. Создание HDRI карты в Cinema 4D (HD)
30. Создание анимированного флага в Cinema 4D (HD)
31. Создание классной сцены с самолетом в Cinema 4D (HD)
32. Создание новостной заставки. Часть 1. (HD)
33. Создание новостной заставки. Часть 2. (HD)
34. Создание новостной заставки. Часть 3. (HD)
35. Создание окружающей среды и атмосферы в Cinema 4D. (HD)
36. Создание планеты Земля в Cinema 4D (HD)
37. Создание стильного интро с использованием Tracer Object в Cinema 4D. (HD)
38. Создание частиц в Cinema 4D (HD)
39. Тег Camera Calibrator. (HD)
40. Тёмная пещера в Cinema 4D (HD)
41. Трава в Cinema 4D. (HD)
42. Управление временем в Cinema 4D. (HD)
43. Футбольная композиция в Cinema 4D (3D модель мяча в подарок!). (HD)
44. Частицы в Cinema 4D. (HD)
45. Частицы вируса в Cinema 4D. (HD)
46. Эффектная абстракция в Cinema 4D. (HD)
47. Эффектная остановка времени в Cinema 4D (HD)
48. Как скачать и установить демо-версию Cinema 4D R16
49. Эффектная 3D-композиция с использованием модуля Hair в Cinema 4D (HD)
50. Motion Tracker в Cinema 4D R16 (HD)
51. Эффектная сцена "Хэллоуин" в Cinema 4 (HD)
52. 3D шестеренки в Cinema 4D (HD)
+++ примеры

MediaInfo:

General ID : 0
Complete name : I:\Супер Cinema 4D (2014)\1. 3D принтер\lesson1.mp4
Format : MPEG-4
Format profile : Base Media / Version 2
Codec ID : mp42
File size : 13,6 Мбайт
Duration : 2 м. 26 с.
Overall bit rate mode : Переменный
Overall bit rate : 784 Кбит/сек
Encoded date : UTC 2014-07-19 09:36:14
Tagged date : UTC 2014-07-19 09:36:14
Видео
ID : 1
Format : AVC
Format/Info : Advanced Video Codec
Format profile : [url=mailto:Baseline@L3.1]Baseline@L3.1[/url]
Format settings, CABAC : Нет
Format settings, ReFrames : 3 кадра
Format settings, GOP : M=1, N=75
Codec ID : avc1
Codec ID/Info : Advanced Video Coding
Duration : 2 м. 26 с.
Bit rate : 592 Кбит/сек
Width : 1280 пикселей
Height : 720 пикселей
Display aspect ratio : 16:9
Frame rate mode : Постоянный
Frame rate : 15,000 кадров/сек
Color space : YUV
Chroma subsampling : 4:2:0
Bit depth : 8 бит
Scan type : Прогрессивная
Bits/(Pixel*Frame) : 0.043
Stream size : 10,3 Мбайт (76%)
Language : English
Encoded date : UTC 2014-07-19 09:36:14
Tagged date : UTC 2014-07-19 09:36:14
Аудио
ID : 2
Format : AAC
Format/Info : Advanced Audio Codec
Format profile : LC
Codec ID : 40
Duration : 2 м. 26 с.
Bit rate mode : Переменный
Bit rate : 192 Кбит/сек
Maximum bit rate : 343 Кбит/сек
Channel(s) : 2 канала
Channel positions : Front: L R
Sampling rate : 44,1 КГц
Compression mode : С потерями
Stream size : 3,30 Мбайт (24%)
Language : English
Encoded date : UTC 2014-07-19 09:36:14
Tagged date : UTC 2014-07-19 09:36:14
Скриншоты:
Скачать .torrent

Для того, чтобы скачать торрент-файл

Артем Лукьянов - Супер Cinema 4D (2014)

с нашего сайта, Вам необходимо Войти на сайт под своим логином! Если у Вас ещё нет логина, тогда Вам нужно сначала Зарегистрироваться!

Как скачивать? · Что такое торрент? · Рейтинг и ограничения

psystop

Спасибо за раздачу. Когда смогу заработать в этой сфере, обезательно заплачу ребятам за курс.

Дима141220

Ребята вы молодцы! Спасибо большое!!!

Star9111

Посмотрел предыдущие комментарии - я тоже давал себе слово, купить этот курс у авторов, после того, как начну зарабатывать на видео-монтаже... :) Похоже долго они ещё от меня денег не дождутся :) Курс конечно-же супер. За такие материалы даже хочется заплатить... потом, когда зарабатывать начну на видео :)
А без шуток - ребята делают огромную работу, причём качественно. Даже по их бесплатным материалам, которых уже очень много, можно очень многому научиться...

Олканоид

Спасибо за раздачу!

norman

Спасибо большое, буду осваивать!

AlexanderHm

Спасибо большое, как выучусь заплачу ребятам сразу с первых заработков.
Показать сообщения:    
Ответить на тему

Артем Лукьянов - Супер Cinema 4D (2014) скачать торрент (torrent), видеоуроки, тренинги, обучающее видео и видеокурсы

Текущее время: Сегодня 20:39

Часовой пояс: GMT + 4



Вы не можете начинать темы
Вы не можете отвечать на сообщения
Вы не можете редактировать свои сообщения
Вы не можете удалять свои сообщения
Вы не можете голосовать в опросах
Вы не можете прикреплять файлы к сообщениям
Вы не можете скачивать файлы