Александр Заморин - Мой первый зеркальный Nikon (2012)

Ответить на тему
 
Автор Сообщение

Yulya ®

-Александр Заморин - Мой первый зеркальный Nikon (2012)- Автор (режиссер): Заморин Александр
Жанр: Обучающее видео
Продолжительность: 01:37:58
Качество видео: PCRec
Видеокодек: TSCC
Битрейт видео: ~1 916 Kbps
Размер кадра: 1024x768 15fps
Аудиокодек: PCM
Битрейт аудио: 352kbps
Описание:
Содержание видеокурса «Мой первый зеркальный Nikon»:
Видеоурок 1. Устройство Вашей фотокамеры
Здесь подробно разбираются назначение всех функциональных узлов Вашей фотокамеры, обозначения, важные особенности объективов, и ключевые моменты правильного обращения с зеркальной фотокамерой.
Видеоурок 2. Экспозиция
Здесь речь идёт о принципах самой фотографии и о грамотной работе с выдержкой, светочувствительностью, диафрагмой. А так же наглядно демонстрируется работа с экспозамером и экспокоррекцией. Начинается разбор расхождения теории и практики.
Видеоурок 3. Авто фокус и ручная фокусировка
В этом уроке будут рассмотрены все пределы возможностей работы с автоматической, и что более важно, с ручной фокусировкой Вашего зеркального Nikon. Это болевые точки любой фотографии. Так же здесь будут разобраны достаточно острые проблемы потери фокусировки, и показаны способы выхода из сложных ситуаций.
Видеоурок 4. Режимы фотосъёмки
Разбор всех пред установочных режимов зелёной зоны, подробное описание работы в каждом из существующих ручных режимов. А так же рабочая информация о том, какой режим и где хорош на практике. Что хорошо в пейзаже, что в репортаже, а что в портрете.
Видеоурок 5. Баланс белого и работа с цветом
Здесь Вы сможете устранить пробелы в знаниях по работе с цветовыми стилями и балансом белого. Фотография ещё с появлением цветных фотоплёнок превратилась в мир красок, и быть до сих пор не подкованным в этом вопросе достаточно неприятно.
Видеоурок 6. Форматы
Очевидные плюсы и неочевидные минусы сырого негатива RAW, когда какой формат использовать и что такого можно делать с фотографиями после фотосъёмки.
Видеоурок 7. Работа со вспышкой
Здесь Вы получите ответы на такие практические вопросы, которые чешутся обычно больше всего. Например, в каких случаях нужно покупать внешнюю, а в каких можно обойтись встроенной? Где найти баланс между вспышкой и длинной выдержкой? Когда использование вспышки возможно, а когда не возможно?
Видеоурок 8. Режим live view, видеосьемка
Вы узнаете, как им пользоваться и когда он бывает полезен. Плюс получите всякую полезную информацию о том, как он фокусируется с помощью матрицы, когда Ваши снимки зашумят и почему его работа устроена именно так, а не иначе.

МедиаИнфо:

General
General
Complete name : H:\tutorials\Александр Заморин\Мой первый Nikon\AutoPlay\Videos\Nikon урок 1.avi
Format : AVI
Format/Info : Audio Video Interleave
File size : 276 MiB
Duration : 14mn 45s
Overall bit rate : 2 616 Kbps
Video
ID : 0
Format : TechSmith
Codec ID : tscc
Codec ID/Info : TechSmith Screen Capture
Duration : 14mn 45s
Bit rate : 1 843 Kbps
Width : 1 024 pixels
Height : 768 pixels
Display aspect ratio : 4:3
Frame rate : 15.000 fps
Bits/(Pixel*Frame) : 0.156
Stream size : 195 MiB (70%)
Audio
ID : 1
Format : PCM
Format settings, Endianness : Little
Format settings, Sign : Signed
Codec ID : 1
Duration : 14mn 45s
Bit rate mode : Constant
Bit rate : 768 Kbps
Channel count : 2 channels
Sampling rate : 24.0 KHz
Bit depth : 16 bits
Stream size : 81.1 MiB (29%)
Alignment : Aligned on interleaves
Interleave, duration : 1000 ms (14.99 video frames)
Interleave, preload duration : 750 ms
Скриншоты:
Скачать .torrent

Для того, чтобы скачать торрент-файл

Александр Заморин - Мой первый зеркальный Nikon (2012)

с нашего сайта, Вам необходимо Войти на сайт под своим логином! Если у Вас ещё нет логина, тогда Вам нужно сначала Зарегистрироваться!

Как скачивать? · Что такое торрент? · Рейтинг и ограничения

Показать сообщения:    
Ответить на тему

Александр Заморин - Мой первый зеркальный Nikon (2012) скачать торрент (torrent), видеоуроки, тренинги, обучающее видео и видеокурсы

Текущее время: Сегодня 00:19

Часовой пояс: GMT + 4



Вы не можете начинать темы
Вы не можете отвечать на сообщения
Вы не можете редактировать свои сообщения
Вы не можете удалять свои сообщения
Вы не можете голосовать в опросах
Вы не можете прикреплять файлы к сообщениям
Вы не можете скачивать файлы