Специалист - Анализ финансового состояния предприятия (2013)

Ответить на тему
 
Автор Сообщение

Yulya ®

-Специалист - Анализ финансового состояния предприятия (2013)- Автор (режиссер): Специалист
Жанр: Обучающие видео-уроки
Продолжительность: 23:24:22
Качество видео: PCRec
Видеокодек: AVI
Битрейт видео: ~413 - 898 kb/s
Размер кадра: 774x579 - 1002x614
Аудиокодек: PCM
Битрейт аудио: 352,8 kb/s, 1 Ch
Доп. материалы: Есть
Описание:
Техника финансового анализа позволяет определить важные показатели и составить комплексное представление о настоящем и будущем финансовом состоянии предприятия.
Курс предназначен для финансовых менеджеров, руководителей предприятий, работников кредитных учреждений, бизнесменов.
В курс входят видеоуроки с подробным и доступным разбором модулей и необходимые документы.

По окончании курса Вы будете уметь:

Слушатели получат следующие знания и навыки:
Получат представление о составе и правилах формирования финансовой отчетности, о возможностях и методах ее анализа.
Освоят основы финансового анализа.
Смогут самостоятельно рассчитать и проанализировать основные показатели финансового состояния предприятия.
Научатся «читать» финансовую отчетность предприятия;
При помощи освоенных методик смогут оценить текущее состояние и перспективы развития собственного предприятия и предприятий – контрагентов.

Программа курса:

Модуль 1. Основные принципы и понятия бухгалтерского учета
Бухгалтерский учет на предприятии
регламентация бухгалтерского учета предприятия
принцип двойной записи, план счетов, корреспонденция счетов и их отражение в отчетности предприятия
некоторые правила бухучета, с точки зрения формируемой отчетности
Бухгалтерская основа формирования отчетности
обороты и сальдо, формирование оборотной ведомости
бухгалтерская основа отчета о прибылях и убытках, анализ счета как источник аналитической информации
практическое занятие по формированию и пониманию бухгалтерской отчетности
Модуль 2. Финансовая отчетность как информационная база финансовой отчетности
Основные формы бухгалтерской отчетности
регламентация финансовой отчетности
состав бухгалтерской отчетности
использование финансовой отчетности для целей анализа
Сущность и содержание финансовой отчетности
содержание и смысл баланса (Форма №1)
трактовка актива баланса
трактовка пассива баланса
отчет о прибылях и убытках (Форма №2): назначение, формирование, содержание
отчет об изменениях капитала (Форма №3)
отчет о движении денежных средств (Форма №4)
приложение к бухгалтерскому балансу (Форма №5)
Особенности формирования консолидированной отчетности
понятие консолидированной группы и консолидированной отчетности
нормативная база формирования консолидированной отчетности
Публичность финансовой отчетности
пользователи финансовой отчетности
порядок публикации и состав публикуемой отчетности
Модуль 3. Основы финансового анализа
Сущность и методы финансового анализа
понятие и возможности финансового анализа
использование финансовой отчетности для целей анализа
виды финансового анализа, горизонтальный и вертикальный анализ
принципы успешного анализа
два подхода к анализу финансового состояния предприятия
Экспресс-анализ и комплексный анализ финансового состояния предприятия
понятие и схема экспресс-анализа предприятия
правила проведения экспрес анализа
понятие и схема проведения комплексного углубленного анализа
назначение управленческого анализа
Управленческий баланс и отчет о прибылях и убытках
основные правила формирования управленческого баланса
практическое формирование управленческого баланса
различные форматы отчета о прибылях и убытках
Модуль 4. Анализ и оценка финансового состояния предприятия
Анализ имущественного потенциала предприятия
анализ структуры имущества
признаки "хорошего" баланса
решение практических задач
Анализ ликвидности и платежеспособности
понятие ликвидности и платежеспособности
показатели ликвидности
решение практических задач
Анализ и оценка финансовой устойчивости
понятие финансовой устойчивости
классификация,, расчет и трактовка показателей финансовой устойчивости
решение практических задач
Модуль 5. Анализ и оценка деловой активности
Основные направления анализа деловой активности
Анализ результативности
прибыль как показатель результативности
использование отчета о прибылях и убытках в анализе результативности
горизонтальный и вертикальный анализ отчета о прибылях и убытках
расчет показателей результативности
Анализ доходности и рентабельности
показатели доходности и рентабельности
группа показателей доходности
группа показателей рентабельности
расчет показателей доходности и рентабельности
Анализ оборачиваемости активов и капитала
показатели эффективности использования ресурсов
понятие операционного и финансового циклов
расчет показателей оборачиваемости
Модуль 6. Анализ эффективности управления денежными потоками
Отчет о движении денежных средств (форма №4) и использование его в целях анализа
характеристика денежных потоков
структура отчета о движении денежных средств (Форма №4)
прямой и косвенный методы построения отчета о движении денежных средств
Анализ движения денежных средств
показатели платежеспособности
анализ отчета о движении денежных средств, построенного косвенным методом
Управление денежными потоками
эффективное управление денежными потоками
политика управления денежными активами
внешние и внутренние факторы, влияющие на денежные потоки
Модуль 7. Комплексный финансовый анализ и ранняя диагностика несостоятельности предприятия
факторный анализ
некоторые положения комплексного анализа
формирование выводов по результатам анализа

О преподавателе:

Рулев Сергей Викторович.
Преподаватель-практик, имеющий многолетний опыт работы финансовым директором в крупнейших компаниях России. Щедро делится со слушателями профессиональными секретами. Особый упор делает на практическое применение получаемых навыков. Продолжая обучение в «Специалисте», наши слушатели вновь и вновь записываются к Сергею Викторовичу — лучшее подтверждение профессионального и педагогического мастерства!
Сергей Викторович успешно внедрил системы бюджетирования, организовал бюджетный контроль и наладил ведение управленческого учета во многих известных компаниях, обеспечивая значительное снижение накладных расходов и рост прибыли.
Высочайший уровень квалификации Сергея Викторовича подтвержден степенью MBA (Master of Business Administration, Магистр Делового Администрирования), полученной в Американском Институте Бизнеса и Экономики.
Степень МВА — признанное во всем мире подтверждение квалификации бизнес-руководителя среднего и высшего звена.

MediaInfo:

Код:
Общее
Полное имя                               : C:\[Специалист] Анализ финансового состояния предприятия - 2013\Урок 01.avi
Формат                                   : AVI
Формат/Информация                        : Audio Video Interleave
Размер файла                             : 688 Мбайт
Продолжительность                        : 2 ч. 4 м.
Общий поток                              : 770 Кбит/сек
Видео
Идентификатор                            : 0
Формат                                   : TechSmith
Идентификатор кодека                     : tscc
Идентификатор кодека/Информация          : TechSmith Screen Capture
Продолжительность                        : 2 ч. 4 м.
Битрейт                                  : 413 Кбит/сек
Ширина                                   : 774 пикселя
Высота                                   : 579 пикселей
Соотношение сторон                       : 4:3
Частота кадров                           : 15,000 кадров/сек
Бит/(Пиксели*Кадры)                      : 0.061
Размер потока                            : 369 Мбайт (54%)
Аудио
Идентификатор                            : 1
Формат                                   : PCM
Параметр Endianness формата              : Little
Параметр Sign формата                    : Signed
Идентификатор кодека                     : 1
Продолжительность                        : 2 ч. 4 м.
Вид битрейта                             : Постоянный
Битрейт                                  : 352,8 Кбит/сек
Каналы                                   : 1 канал
Частота                                  : 22,05 КГц
Битовая глубина                          : 16 бит
Размер потока                            : 315 Мбайт (46%)
Выравнивание                             : Соединение по промежуткам
Продолжительность промежутка             : 1000  мс. (15,00 видеокадров)
Время предзагрузки промежутка            : 749  мс.
Код:
Общее
Полное имя                               : C:\[Специалист] Анализ финансового состояния предприятия - 2013\Урок 10.avi
Формат                                   : AVI
Формат/Информация                        : Audio Video Interleave
Профиль формата                          : OpenDML
Размер файла                             : 1,26 Гбайт
Продолжительность                        : 2 ч. 23 м.
Общий поток                              : 1255 Кбит/сек
Видео
Идентификатор                            : 0
Формат                                   : TechSmith
Идентификатор кодека                     : tscc
Идентификатор кодека/Информация          : TechSmith Screen Capture
Продолжительность                        : 2 ч. 23 м.
Битрейт                                  : 898 Кбит/сек
Ширина                                   : 1002 пикселя
Высота                                   : 614 пикселей
Соотношение сторон                       : 16:10
Частота кадров                           : 15,000 кадров/сек
Бит/(Пиксели*Кадры)                      : 0.097
Размер потока                            : 925 Мбайт (72%)
Аудио
Идентификатор                            : 1
Формат                                   : PCM
Параметр Endianness формата              : Little
Параметр Sign формата                    : Signed
Идентификатор кодека                     : 1
Продолжительность                        : 2 ч. 23 м.
Вид битрейта                             : Постоянный
Битрейт                                  : 352,8 Кбит/сек
Каналы                                   : 1 канал
Частота                                  : 22,05 КГц
Битовая глубина                          : 16 бит
Размер потока                            : 363 Мбайт (28%)
Выравнивание                             : Соединение по промежуткам
Продолжительность промежутка             : 1000  мс. (15,00 видеокадров)
Время предзагрузки промежутка            : 749  мс.
Скриншоты:
Скачать .torrent

Для того, чтобы скачать торрент-файл

Специалист - Анализ финансового состояния предприятия (2013)

с нашего сайта, Вам необходимо Войти на сайт под своим логином! Если у Вас ещё нет логина, тогда Вам нужно сначала Зарегистрироваться!

Как скачивать? · Что такое торрент? · Рейтинг и ограничения

Владимирв

Доброго дня, у кого есть именно те файлы в доп материале, которые представлены на видео в курсе?
Показать сообщения:    
Ответить на тему

Специалист - Анализ финансового состояния предприятия (2013) скачать торрент (torrent), видеоуроки, тренинги, обучающее видео и видеокурсы

Текущее время: Сегодня 14:17

Часовой пояс: GMT + 4



Вы не можете начинать темы
Вы не можете отвечать на сообщения
Вы не можете редактировать свои сообщения
Вы не можете удалять свои сообщения
Вы не можете голосовать в опросах
Вы не можете прикреплять файлы к сообщениям
Вы не можете скачивать файлы