Александр Ерофеев - Профессиональная верстка (2017)

Ответить на тему
 
Автор Сообщение

Yulya ®

Александр Ерофеев | Профессиональная верстка (2017) PCRec - Автор (режиссер): Александр Ерофеев
Производство: GeekBrains
Жанр: HTML, CSS
Описание:
Основа веб-технологии – это HTML/CSS
Это базовый фундамент, который служит основой для создания современных веб-сайтов и является первым этапом для изучения других технологий программирования для глобальной сети Internet.
Любая значимая организация имеет своё представление в глобальной сети. Это требование времени и требование рынка. Без учета современных реалий мира невозможно добиться конкурентоспособности и следовательно успеха. Именно связка HTML/CSS даёт возможность верстать макеты, создавать и редактировать статические сайты. Изучаемая на данном курсе технология программирования позволяет заложить долгосрочную основу и закрепиться в данной области на рынке труда.
Продолжительность: 15.09.50
Качество видео: PCRec
Язык: Русский
Видео: AVC/H.264, 1280 x 720, ~280 Kbps
Аудио: AAC, 2 ch, 64 Kbps

Mediainfo:

General
Complete name : D:\GB\Профессиональная верстка\Урок 2\lesson2.mp4
Format : MPEG-4
Format profile : Base Media
Codec ID : isom (isom/iso2/avc1/mp41)
File size : 314 MiB
Duration : 2 h 5 min
Overall bit rate : 351 kb/s
Writing application : Lavf54.29.104
Video
ID : 1
Format : AVC
Format/Info : Advanced Video Codec
Format profile : High@L3.1
Format settings : CABAC / 4 Ref Frames
Format settings, CABAC : Yes
Format settings, RefFrames : 4 frames
Codec ID : avc1
Codec ID/Info : Advanced Video Coding
Duration : 2 h 5 min
Bit rate : 280 kb/s
Nominal bit rate : 384 kb/s
Width : 1 280 pixels
Height : 720 pixels
Display aspect ratio : 16:9
Frame rate mode : Constant
Frame rate : 20.000 FPS
Color space : YUV
Chroma subsampling : 4:2:0
Bit depth : 8 bits
Scan type : Progressive
Bits/(Pixel*Frame) : 0.015
Stream size : 251 MiB (80%)
Writing library : x264 core 132
Encoding settings : cabac=1 / ref=1 / deblock=1:0:0 / analyse=0x3:0x113 / me=hex / subme=2 / psy=1 / psy_rd=1.00:0.00 / mixed_ref=0 / me_range=16 / chroma_me=1 / trellis=0 / 8x8dct=1 / cqm=0 / deadzone=21,11 / fast_pskip=1 / chroma_qp_offset=0 / threads=4 / lookahead_threads=1 / sliced_threads=0 / nr=0 / decimate=1 / interlaced=0 / bluray_compat=0 / constrained_intra=0 / bframes=3 / b_pyramid=2 / b_adapt=1 / b_bias=0 / direct=1 / weightb=1 / open_gop=0 / weightp=1 / keyint=80 / keyint_min=8 / scenecut=40 / intra_refresh=0 / rc_lookahead=10 / rc=cbr / mbtree=1 / bitrate=384 / ratetol=1.0 / qcomp=0.60 / qpmin=0 / qpmax=69 / qpstep=4 / vbv_maxrate=384 / vbv_bufsize=512 / nal_hrd=none / ip_ratio=1.40 / aq=1:1.00
Audio
ID : 2
Format : AAC
Format/Info : Advanced Audio Codec
Format profile : LC
Codec ID : mp4a-40-2
Duration : 2 h 5 min
Bit rate mode : Constant
Bit rate : 64.0 kb/s
Channel(s) : 2 channels
Channel positions : Front: L R
Sampling rate : 44.1 kHz
Frame rate : 43.066 FPS (1024 SPF)
Compression mode : Lossy
Stream size : 57.3 MiB (18%)
Default : Yes
Alternate group : 1
Скриншоты:
Скачать .torrent

Для того, чтобы скачать торрент-файл

Александр Ерофеев - Профессиональная верстка (2017)

с нашего сайта, Вам необходимо Войти на сайт под своим логином! Если у Вас ещё нет логина, тогда Вам нужно сначала Зарегистрироваться!

Как скачивать? · Что такое торрент? · Рейтинг и ограничения

Показать сообщения:    
Ответить на тему

Александр Ерофеев - Профессиональная верстка (2017) скачать торрент (torrent), видеоуроки, тренинги, обучающее видео и видеокурсы

Текущее время: Сегодня 23:45

Часовой пояс: GMT + 4



Вы не можете начинать темы
Вы не можете отвечать на сообщения
Вы не можете редактировать свои сообщения
Вы не можете удалять свои сообщения
Вы не можете голосовать в опросах
Вы не можете прикреплять файлы к сообщениям
Вы не можете скачивать файлы