Дима Ковалев - Основы графического дизайна (2017)

Ответить на тему
 
Автор Сообщение

Yulya ®

Дима Ковалев | Основы графического дизайна (2017) PCRec - Автор (режиссер): Дима Ковалев
Производство: highlights
Жанр: Видеокурс, Графика, 2D
Сайт производителя: highlights
Описание:
Этот курс идеален для тех, кто уже знаком с Adobe Illustrator и хочет углубиться в направления графического дизайна! Отлично подойдет тем, кто хочет научиться создавать логотипы, элементы айдентики (фирменного стиля) и иллюстрации.
Курс наполнен важной теоретической информацией, которую должен знать каждый графический дизайнер, а также практикой, без которой невозможно научиться придумывать креативные концепции.
Продолжительность: 18:00:00
Качество видео: PCRec
Видео: AVC/H.264, 1920x1080, ~324kbps
Аудио: AAC, 2 ch, 258kbps

Mediainfo:

General
Complete name : D:\torrent\Основы графического дизайна (Дима Ковалев) (2017)\1 урок. Информационная подготовка\Видео-запись\Видео-запись\Запись.mp4
Format : MPEG-4
Format profile : Base Media / Version 2
Codec ID : mp42 (isom/iso2/avc1/mp41)
File size : 598 MiB
Duration : 2 h 22 min
Overall bit rate mode : Variable
Overall bit rate : 588 kb/s
Encoded date : UTC 2017-07-18 18:27:01
Tagged date : UTC 2017-07-18 18:27:01
Writing application : HandBrake 0.10.5 2016021100
Video
ID : 1
Format : AVC
Format/Info : Advanced Video Codec
Format profile : Main@L4
Format settings, CABAC : Yes
Format settings, ReFrames : 4 frames
Codec ID : avc1
Codec ID/Info : Advanced Video Coding
Duration : 2 h 22 min
Bit rate : 325 kb/s
Width : 1 920 pixels
Height : 1 080 pixels
Display aspect ratio : 16:9
Frame rate mode : Variable
Frame rate : 20.000 FPS
Minimum frame rate : 7.443 FPS
Maximum frame rate : 20.000 FPS
Color space : YUV
Chroma subsampling : 4:2:0
Bit depth : 8 bits
Scan type : Progressive
Bits/(Pixel*Frame) : 0.008
Stream size : 330 MiB (55%)
Writing library : x264 core 142 r2479 dd79a61
Encoding settings : cabac=1 / ref=1 / deblock=1:0:0 / analyse=0x1:0x111 / me=hex / subme=2 / psy=1 / psy_rd=1.00:0.00 / mixed_ref=0 / me_range=16 / chroma_me=1 / trellis=0 / 8x8dct=0 / cqm=0 / deadzone=21,11 / fast_pskip=1 / chroma_qp_offset=0 / threads=6 / lookahead_threads=2 / sliced_threads=0 / nr=0 / decimate=1 / interlaced=0 / bluray_compat=0 / constrained_intra=0 / bframes=3 / b_pyramid=2 / b_adapt=1 / b_bias=0 / direct=1 / weightb=1 / open_gop=0 / weightp=1 / keyint=200 / keyint_min=20 / scenecut=40 / intra_refresh=0 / rc_lookahead=10 / rc=crf / mbtree=1 / crf=24.0 / qcomp=0.60 / qpmin=0 / qpmax=69 / qpstep=4 / vbv_maxrate=20000 / vbv_bufsize=25000 / crf_max=0.0 / nal_hrd=none / filler=0 / ip_ratio=1.40 / aq=1:1.00
Encoded date : UTC 2017-07-18 18:27:01
Tagged date : UTC 2017-07-18 18:27:01
Color range : Limited
Color primaries : BT.709
Transfer characteristics : BT.709
Matrix coefficients : BT.709
Audio
ID : 2
Format : AAC
Format/Info : Advanced Audio Codec
Format profile : LC
Codec ID : 40
Duration : 2 h 22 min
Bit rate mode : Variable
Bit rate : 258 kb/s
Channel(s) : 2 channels
Channel positions : Front: L R
Sampling rate : 44.1 kHz
Frame rate : 43.066 FPS (1024 spf)
Compression mode : Lossy
Stream size : 263 MiB (44%)
Title : Stereo / Stereo
Default : Yes
Alternate group : 1
Encoded date : UTC 2017-07-18 18:27:01
Tagged date : UTC 2017-07-18 18:27:01

Содержание:

ЗАНЯТИЕ № 1. Информационная подготовка
- Разбор основных направлений графического дизайна;
- Примеры проектов и конкретных авторов (ведущих
специалистов в своих спецификах);
- Описание каждого направления дизайна и его связь
с векторными редакторами (основные техники и приемы);
- Основные составляющие дизайна: цвет, композиция,
графика, типографика;
- Ресурсы для вдохновения (как творить, где искать и т.д.)
ДЗ: Найти в каждом направлении графического дизайна понравившийся проект, стиль или автора.
Смысл - учиться искать качественный контент правильно.
ЗАНЯТИЕ № 2. Анатомия логотипа
- История появления;
- Основные стили;
- Работа с ТЗ (техническим заданием);
- Начало работы над собственным логотипом;
- Полезная литература.
ДЗ: Разработать логотип на заданную тематику.
ЗАНЯТИЕ № 3. Ключевые элементы айдентики
- Элементы фирменного стиля;
- Создание фирменной визитки, бланка, письма и т.д.;
- Подбор шрифтов, цветов, текстур;
- Полезные материалы.
ДЗ: Разработать фирменный стиль на выбранную тематику (продолжить развитие темы).

ЗАНЯТИЕ № 4. Презентация фирменного стиля

- Онлайн-разбор домашних заданий (советы по улучшению,
основные ошибки, поиск лучших решений);
- Мокапы (что такое, где скачать и как использовать);
- Оформление презентации проекта для заказчика.
ДЗ: Презентовать лого и фирменный стиль (с помощью фотошопа и мокапов)
ЗАНЯТИЕ № 5. Полиграфия и допечатанная подготовка
- Меню;
- Афиши;
- Баннеры;
- Листовки;
- Допечатная подготовка.
ДЗ: Создать на произвольную тематику меню, афишу или плакат.
ЗАНЯТИЕ № 6. Графический дизайн для WEB
- Иконки и их задачи;
- Стили иконок;
- Где скачивать бесплатно и следить за трендами?
- Графические элементы для web (кнопки, навигация,
паттерны и т.д.);
- Создание сета иконок в стиле логотипа.
ДЗ: Разработать набор иконок.
ЗАНЯТИЕ № 7. Создание иллюстрации
- История появления;
- Основные стилистики иллюстраций;
- Скетчи;
- Отрисовка персонажа в фирменном стиле.
ДЗ: Создать иллюстрированного персонажа.
ЗАНЯТИЕ № 8. Свободное плаванье
- Рынок труда для графического дизайнера;
- Общие профессиональные требования для дизайнеров;
- Средние доходы;
- Площадки для портфолио;
- Конкурсы и конференции.
Скриншоты:
Скачать .torrent

Для того, чтобы скачать торрент-файл

Дима Ковалев - Основы графического дизайна (2017)

с нашего сайта, Вам необходимо Войти на сайт под своим логином! Если у Вас ещё нет логина, тогда Вам нужно сначала Зарегистрироваться!

Как скачивать? · Что такое торрент? · Рейтинг и ограничения

Показать сообщения:    
Ответить на тему

Дима Ковалев - Основы графического дизайна (2017) скачать торрент (torrent), видеоуроки, тренинги, обучающее видео и видеокурсы

Текущее время: Сегодня 23:27

Часовой пояс: GMT + 4



Вы не можете начинать темы
Вы не можете отвечать на сообщения
Вы не можете редактировать свои сообщения
Вы не можете удалять свои сообщения
Вы не можете голосовать в опросах
Вы не можете прикреплять файлы к сообщениям
Вы не можете скачивать файлы