Мефодий Келевра - Информационная безопасность (2018)

Ответить на тему
 
Автор Сообщение

Yulya ®

Мефодий Келевра | Информационная безопасность (2018) PCRec - Автор (режиссер): Мефодий Келевра
Производство: GeekBrains
Жанр: IT
Описание:
Методы взлома и защиты
Курс предназначен для людей с небольшими знаниями в области информационной безопасности. Требуется минимальное понимание устройства сетей и используемых в них протоколов. Приветствуется знание UNIX-подобных систем. Если этих знаний нет или их недостаточно, в курсе вы сможете их получить.
Чему Вы научитесь
Ключевым сетевым протоколам, принципам их работы;
Безопасности или небезопасности тех или иных протоколов, используемых в современных сетях;
Способам перехвата сетевого трафика;
Методам защиты от сетевых атак;
Типовым сетевым атакам, применяемым хакерами в сетях;
Выполнять анализ сетевого трафика;
Выполнять ряд сетевых атак и использовать для этих целей ПО;
Проводить аудит информационной безопасности сетевых сервисов.
Продолжительность: 17:26:18
Качество видео: PCRec
Видео: AVC/H.264, 1280 x 720, ~399 kb/s
Аудио: AAC, 2 ch, 64.0 kb/s

Mediainfo:

General
Complete name : D:\Раздачи\Информационная безопасность\Урок 8\8.mp4
Format : MPEG-4
Format profile : Base Media
Codec ID : isom (isom/iso2/avc1/mp41)
File size : 316 MiB
Duration : 1 h 34 min
Overall bit rate : 470 kb/s
Writing application : Lavf54.29.104
Video
ID : 1
Format : AVC
Format/Info : Advanced Video Codec
Format profile : High@L3.1
Format settings : CABAC / 4 Ref Frames
Format settings, CABAC : Yes
Format settings, RefFrames : 4 frames
Codec ID : avc1
Codec ID/Info : Advanced Video Coding
Duration : 1 h 34 min
Bit rate : 399 kb/s
Nominal bit rate : 640 kb/s
Width : 1 280 pixels
Height : 720 pixels
Display aspect ratio : 16:9
Frame rate mode : Constant
Frame rate : 20.000 FPS
Color space : YUV
Chroma subsampling : 4:2:0
Bit depth : 8 bits
Scan type : Progressive
Bits/(Pixel*Frame) : 0.022
Stream size : 268 MiB (85%)
Writing library : x264 core 132
Encoding settings : cabac=1 / ref=1 / deblock=1:0:0 / analyse=0x3:0x113 / me=hex / subme=2 / psy=1 / psy_rd=1.00:0.00 / mixed_ref=0 / me_range=16 / chroma_me=1 / trellis=0 / 8x8dct=1 / cqm=0 / deadzone=21,11 / fast_pskip=1 / chroma_qp_offset=0 / threads=4 / lookahead_threads=1 / sliced_threads=0 / nr=0 / decimate=1 / interlaced=0 / bluray_compat=0 / constrained_intra=0 / bframes=3 / b_pyramid=2 / b_adapt=1 / b_bias=0 / direct=1 / weightb=1 / open_gop=0 / weightp=1 / keyint=80 / keyint_min=8 / scenecut=40 / intra_refresh=0 / rc_lookahead=10 / rc=cbr / mbtree=1 / bitrate=640 / ratetol=1.0 / qcomp=0.60 / qpmin=0 / qpmax=69 / qpstep=4 / vbv_maxrate=640 / vbv_bufsize=512 / nal_hrd=none / ip_ratio=1.40 / aq=1:1.00
Audio
ID : 2
Format : AAC
Format/Info : Advanced Audio Codec
Format profile : LC
Codec ID : mp4a-40-2
Duration : 1 h 34 min
Bit rate mode : Constant
Bit rate : 64.0 kb/s
Channel(s) : 2 channels
Channel positions : Front: L R
Sampling rate : 44.1 kHz
Frame rate : 43.066 FPS (1024 SPF)
Compression mode : Lossy
Stream size : 43.1 MiB (14%)
Default : Yes
Alternate group : 1
Скриншоты:
Скачать .torrent

Для того, чтобы скачать торрент-файл

Мефодий Келевра - Информационная безопасность (2018)

с нашего сайта, Вам необходимо Войти на сайт под своим логином! Если у Вас ещё нет логина, тогда Вам нужно сначала Зарегистрироваться!

Как скачивать? · Что такое торрент? · Рейтинг и ограничения

Показать сообщения:    
Ответить на тему

Мефодий Келевра - Информационная безопасность (2018) скачать торрент (torrent), видеоуроки, тренинги, обучающее видео и видеокурсы

Текущее время: Сегодня 23:49

Часовой пояс: GMT + 4



Вы не можете начинать темы
Вы не можете отвечать на сообщения
Вы не можете редактировать свои сообщения
Вы не можете удалять свои сообщения
Вы не можете голосовать в опросах
Вы не можете прикреплять файлы к сообщениям
Вы не можете скачивать файлы