Анна Рольская - Делай лого (2017)

Ответить на тему
 
Автор Сообщение

Yulya ®

Анна Рольская | Делай лого (2017) PCRec - Автор (режиссер): Анна Рольская
Производство: lettering-school
Жанр: Видеокурс, Графика, 2D
Сайт производителя: lettering-school
Описание:
Вы можете больше чем просто рисовать в стол. Мы пройдем все этапы от скетча до профессионального лого и презентации проекта. А так же заложим прочный фундамент вашей карьеры и откроем дверь в мир, где за леттеринг платят деньги.
За время обучения вы:
  • Получите навыки каллиграфии кистью
  • Создадите первый логотип
  • Научитесь переводить логотипы в векторный вид
  • Освоите различные эффекты
  • Сделаете визитку и узнаете про допечатную подготовку проектов
  • Узнаете как получать деньги за свою работу

Содержание

1 урок - Виды логотипов в стиле леттеринг, назначение, принципы построения, удачные примеры. Связь инструмента и формы букв.
2 урок - Отрисовка логотипа в Adobe Illustrator
3 урок - Изучение эффектов. Создание объема. Совмещение логотипа с фотографией
4 урок - Работа с мокапами. Размещение логотипа на реальных предметах. Размещение первых работ на behance.com
5 урок - Трассировка акварельных и маркерных работ
6 урок - Золотая текстура. Эффекты в Photoshop
7 урок - Создание лого из шрифта. Дизайн визитки. Допечатная подготовка
8 урок - Создание digital меловой доски
9 урок - Работа с сайтом. Создание портфолио
10 урок - Работа с клиентами. Как назначать цены за свои работы
Продолжительность: 14:00:00
Качество видео: PCRec
Видео: AVC/H.264, 640x348, ~102kbps
Аудио: AAC, 2 ch, 117kbps

Mediainfo:

General
Complete name : D:\torrent\delai.logo\Урок4\Оформление проекта.mp4
Format : MPEG-4
Format profile : Base Media / Version 2
Codec ID : mp42 (mp42/mp41/isom/avc1)
File size : 59.3 MiB
Duration : 36 min 59 s
Overall bit rate mode : Variable
Overall bit rate : 224 kb/s
Encoded date : UTC 2017-05-31 18:21:01
Tagged date : UTC 2017-05-31 18:21:01
Video
ID : 1
Format : AVC
Format/Info : Advanced Video Codec
Format profile : High@L3
Format settings, CABAC : Yes
Format settings, ReFrames : 4 frames
Codec ID : avc1
Codec ID/Info : Advanced Video Coding
Duration : 36 min 59 s
Bit rate : 102 kb/s
Width : 640 pixels
Height : 348 pixels
Display aspect ratio : 1.85:1
Frame rate mode : Constant
Frame rate : 25.000 FPS
Color space : YUV
Chroma subsampling : 4:2:0
Bit depth : 8 bits
Scan type : Progressive
Bits/(Pixel*Frame) : 0.018
Stream size : 27.1 MiB (46%)
Writing library : x264 core 150 r10 df79067
Encoding settings : cabac=1 / ref=3 / deblock=1:0:0 / analyse=0x3:0x113 / me=hex / subme=7 / psy=1 / psy_rd=1.00:0.00 / mixed_ref=1 / me_range=16 / chroma_me=1 / trellis=1 / 8x8dct=1 / cqm=0 / deadzone=21,11 / fast_pskip=1 / chroma_qp_offset=-2 / threads=11 / lookahead_threads=1 / sliced_threads=0 / nr=0 / decimate=1 / interlaced=0 / bluray_compat=0 / stitchable=1 / constrained_intra=0 / bframes=3 / b_pyramid=2 / b_adapt=1 / b_bias=0 / direct=1 / weightb=1 / open_gop=0 / weightp=2 / keyint=infinite / keyint_min=25 / scenecut=40 / intra_refresh=0 / rc_lookahead=40 / rc=crf / mbtree=1 / crf=20.0 / qcomp=0.60 / qpmin=5 / qpmax=69 / qpstep=4 / vbv_maxrate=550 / vbv_bufsize=600 / crf_max=0.0 / nal_hrd=none / filler=0 / ip_ratio=1.40 / aq=1:1.00
Encoded date : UTC 2017-05-31 18:21:01
Tagged date : UTC 2017-05-31 18:21:01
Color range : Limited
Color primaries : BT.601 NTSC
Transfer characteristics : BT.601
Matrix coefficients : BT.601
Audio
ID : 2
Format : AAC
Format/Info : Advanced Audio Codec
Format profile : LC
Codec ID : 40
Duration : 36 min 59 s
Bit rate mode : Variable
Bit rate : 118 kb/s
Channel(s) : 2 channels
Channel positions : Front: L R
Sampling rate : 48.0 kHz
Frame rate : 46.875 FPS (1024 spf)
Compression mode : Lossy
Stream size : 31.1 MiB (52%)
Encoded date : UTC 2017-05-31 18:21:01
Tagged date : UTC 2017-05-31 18:21:01
Скриншоты:
Скачать .torrent

Для того, чтобы скачать торрент-файл

Анна Рольская - Делай лого (2017)

с нашего сайта, Вам необходимо Войти на сайт под своим логином! Если у Вас ещё нет логина, тогда Вам нужно сначала Зарегистрироваться!

Как скачивать? · Что такое торрент? · Рейтинг и ограничения

Показать сообщения:    
Ответить на тему

Анна Рольская - Делай лого (2017) скачать торрент (torrent), видеоуроки, тренинги, обучающее видео и видеокурсы

Текущее время: Сегодня 23:25

Часовой пояс: GMT + 4



Вы не можете начинать темы
Вы не можете отвечать на сообщения
Вы не можете редактировать свои сообщения
Вы не можете удалять свои сообщения
Вы не можете голосовать в опросах
Вы не можете прикреплять файлы к сообщениям
Вы не можете скачивать файлы