Академия верстки - Wordpress для верстальщика (2018)

Ответить на тему
 
Автор Сообщение

Yulya ®

Академия верстки | Wordpress для верстальщика (2018) PCRec [H.264] - Автор (режиссер): Академия верстки
Жанр: Верстка, WordPress
Описание:
Целью данного курса является освоение навыков работы с самой популярной CMS системой в мире. Научиться устанавливать готовую верстку на движок Wordpress. Получить опыт создание Wordpress-тем с нуля.
Продолжительность: 21:09:32
Качество видео: PCRec
Видео: AVC/H.264, 1280x720-1920x1080, ~127-1901 Kbps
Аудио: AAC, 2 ch, 125-320 Kbps

Mediainfo:

Общее
Полное имя : .\Другое\Ответы на вопросы. Неделя 1.mp4
Формат : MPEG-4
Профиль формата : Base Media / Version 2
Идентификатор кодека : mp42 (isom/mp42)
Размер файла : 228 Мбайт
Продолжительность : 1 ч. 36 м.
Режим общего битрейта : Переменный
Общий поток : 332 Кбит/сек
Дата кодирования : UTC 2018-03-10 17:26:32
Дата пометки : UTC 2018-03-10 17:26:32
gsst : 0
gstd : 5763262
Видео
Идентификатор : 1
Формат : AVC
Формат/Информация : Advanced Video Codec
Профиль формата : Main@L3.1
Настройки формата : CABAC / 3 Ref Frames
Параметр CABAC формата : Да
Параметр RefFrames формата : 3 кадра
Идентификатор кодека : avc1
Идентификатор кодека/Информация : Advanced Video Coding
Продолжительность : 1 ч. 36 м.
Битрейт : 202 Кбит/сек
Ширина : 1280 пикселей
Высота : 720 пикселей
Соотношение сторон : 16:9
Режим частоты кадров : Переменный
Частота кадров : 30,000 кадров/сек
Минимальная частота кадров : 28,846 кадров/сек
Максимальная частота кадров : 31,250 кадров/сек
Цветовое пространство : YUV
Субдискретизация насыщенности : 4:2:0
Битовая глубина : 8 бит
Тип развёртки : Прогрессивная
Бит/(Пиксели*Кадры) : 0.007
Размер потока : 139 Мбайт (61%)
Заголовок : ISO Media file produced by Google Inc. Created on: 03/10/2018.
Дата кодирования : UTC 2018-03-10 17:26:32
Дата пометки : UTC 2018-03-10 17:26:32
Цветовой диапазон : Limited
Основные цвета : BT.709
Характеристики трансфера : BT.709
Коэффициенты матрицы : BT.709
Аудио
Идентификатор : 2
Формат : AAC
Формат/Информация : Advanced Audio Codec
Профиль формата : LC
Идентификатор кодека : mp4a-40-2
Продолжительность : 1 ч. 36 м.
Вид битрейта : Переменный
Битрейт : 126 Кбит/сек
Каналы : 2 канала
Расположение каналов : Front: L R
Частота : 44,1 КГц
Частота кадров : 43,066 кадра/сек (1024 SPF)
Метод сжатия : С потерями
Размер потока : 86,3 Мбайт (38%)
Заголовок : ISO Media file produced by Google Inc. Created on: 03/10/2018.
Дата кодирования : UTC 2018-03-10 17:26:32
Дата пометки : UTC 2018-03-10 17:26:32
Общее
Полное имя : .\Урок 2 - Создание темы\Создание темы WordPress.mp4
Формат : MPEG-4
Профиль формата : Base Media
Идентификатор кодека : isom (isom/iso2/avc1/mp41)
Размер файла : 295 Мбайт
Продолжительность : 45 м. 59 с.
Общий поток : 898 Кбит/сек
Дата кодирования : UTC 2018-03-06 06:51:53
Дата пометки : UTC 2018-03-06 06:51:53
Программа кодирования : Lavf57.71.100
Видео
Идентификатор : 1
Формат : AVC
Формат/Информация : Advanced Video Codec
Профиль формата : High@L4.2
Настройки формата : CABAC / 4 Ref Frames
Параметр CABAC формата : Да
Параметр RefFrames формата : 4 кадра
Идентификатор кодека : avc1
Идентификатор кодека/Информация : Advanced Video Coding
Продолжительность : 45 м. 59 с.
Битрейт : 691 Кбит/сек
Ширина : 1920 пикселей
Высота : 1080 пикселей
Соотношение сторон : 16:9
Режим частоты кадров : Переменный
Частота кадров : 60,000 кадров/сек
Минимальная частота кадров : 59,959 кадров/сек
Максимальная частота кадров : 60,038 кадров/сек
Цветовое пространство : YUV
Субдискретизация насыщенности : 4:2:0
Битовая глубина : 8 бит
Тип развёртки : Прогрессивная
Бит/(Пиксели*Кадры) : 0.006
Размер потока : 227 Мбайт (77%)
Библиотека кодирования : x264 core 155 r10 b00bcaf
Настройки программы : cabac=1 / ref=4 / deblock=1:0:0 / analyse=0x3:0x113 / me=hex / subme=8 / psy=1 / psy_rd=1.00:0.00 / mixed_ref=1 / me_range=16 / chroma_me=1 / trellis=2 / 8x8dct=1 / cqm=0 / deadzone=21,11 / fast_pskip=1 / chroma_qp_offset=-2 / threads=34 / lookahead_threads=5 / sliced_threads=0 / nr=0 / decimate=1 / interlaced=0 / bluray_compat=0 / stitchable=1 / constrained_intra=0 / bframes=3 / b_pyramid=2 / b_adapt=2 / b_bias=0 / direct=3 / weightb=1 / open_gop=0 / weightp=2 / keyint=infinite / keyint_min=60 / scenecut=40 / intra_refresh=0 / rc_lookahead=50 / rc=crf / mbtree=1 / crf=20.0 / qcomp=0.60 / qpmin=5 / qpmax=69 / qpstep=4 / vbv_maxrate=5500 / vbv_bufsize=15000 / crf_max=0.0 / nal_hrd=none / filler=0 / ip_ratio=1.40 / aq=1:1.00
Дата кодирования : UTC 2018-03-06 06:51:53
Дата пометки : UTC 2018-03-06 06:51:53
Цветовой диапазон : Limited
Основные цвета : BT.709
Характеристики трансфера : BT.709
Коэффициенты матрицы : BT.709
Аудио
Идентификатор : 2
Формат : MPEG Audio
Версия формата : Version 1
Профиль формата : Layer 3
Настройки формата : Joint stereo
Идентификатор кодека : mp4a-6B
Продолжительность : 45 м. 59 с.
Duration_LastFrame : 78 мс.
Вид битрейта : Постоянный
Битрейт : 192 Кбит/сек
Каналы : 2 канала
Частота : 44,1 КГц
Метод сжатия : С потерями
Размер потока : 63,1 Мбайт (21%)
Default : Да
AlternateGroup/String : 1
Дата кодирования : UTC 2018-03-06 06:51:53
Дата пометки : UTC 2018-03-06 06:51:53

Дополнительная информация:

В раздаче имеются архивы! В них содержится исходники.

Программа курса:

Урок 1 — Установка Wordpress
Урок 2 — Создание темы
Урок 3 — Регистрация меню
Урок 4 — Сайдбары
Урок 5 — Вывод постов
Урок 6 — Еще раз про Хуки. Шорткоды
Урок 7 — Шаблоны постов и страниц
Урок 8 — Свои типы записей
Урок 9 — Произвольные поля
Урок 10 — Таксономии
Урок 11 — Формы
Урок 12 — Работа с дочерними темами
Урок 13 — SEO для WordPress
Урок 14 — Оптимизация скорости загрузки сайта (GPSI)
Урок 15 — Создание темы на фреймворке Unison
Урок 16 — Установка Google Карт на сайт
Бонус-урок № 1 — Старт на Envato Market
Бонус-урок № 2 — Заливаем готовую тему
Бонус-урок № 3 — Оформление страниц, Social marketing, Support
Скриншоты:
Скачать .torrent

Для того, чтобы скачать торрент-файл

Академия верстки - Wordpress для верстальщика (2018)

с нашего сайта, Вам необходимо Войти на сайт под своим логином! Если у Вас ещё нет логина, тогда Вам нужно сначала Зарегистрироваться!

Как скачивать? · Что такое торрент? · Рейтинг и ограничения

Показать сообщения:    
Ответить на тему

Академия верстки - Wordpress для верстальщика (2018) скачать торрент (torrent), видеоуроки, тренинги, обучающее видео и видеокурсы

Текущее время: Сегодня 17:37

Часовой пояс: GMT + 4



Вы не можете начинать темы
Вы не можете отвечать на сообщения
Вы не можете редактировать свои сообщения
Вы не можете удалять свои сообщения
Вы не можете голосовать в опросах
Вы не можете прикреплять файлы к сообщениям
Вы не можете скачивать файлы