Константин Спирин - Основы иллюстрации в Adobe Illustrator (2017)

Ответить на тему
 
Автор Сообщение

Yulya ®

Константин Спирин | Основы иллюстрации в Adobe Illustrator (2017) PCRec - Автор (режиссер): Константин Спирин
Производство: brush.guru
Жанр: Видеокурс, Графика, 2D
Сайт производителя: brush-guru
Описание:
Adobe Illustrator является общепризнанным стандартом для создания и подготовки векторной графики. Он отлично интегрируется с другими инструментами Adobe, чаще всего применяемыми на различных этапах творческого и технологических процессов, располагает наиболее продвинутым и современным инструментарием, активно развивается, предоставляя новые функции пользователям, является мультиплатформенным инструментом, работающим одинаково успешно на Mac OS и Windows. Плюс, в работе с Illustrator вам будет доступно самое большое количество подключаемых модулей и дополнений, позволяющих расширить функционал. Пришла пора как следует изучить эти возможности!
На курсе вы получите исчерпывающую информацию обо всех инструментах, а интересные домашние задания превратят полученные знания в навыки, которые навсегда останутся на кончиках ваших пальцев. Теоретическая же часть курса строится на объяснении фундаментальных принципов работы, дополненных опытом применения тех или иных инструментов. К тому же, при создании курса учтен многолетний опыт преподавания приложения Illustrator для специалистов различных областей и самых разных уровней подготовки.

Программа курса

Урок 1. Вводный
  • Глоссарий современного искусства
  • Визуальная коммуникация и образ
  • Направления и виды иллюстраций
  • Ключевые навыки иллюстратора
  • С чего начать?
  • Методы создания идей и их развитие
  • Этапы создания иллюстрации
    Урок 2. Композиция
  • Что такое композиция
  • Зачем нужна композиция
  • Основные виды композиций
  • Центр композиции
  • Распределение визуальных масс
  • Принцип равновесия
  • Композиция в иллюстрации
    Урок 3. Форма. Силуэт. Пропорции
  • Форма
  • Упрощение объектов
  • Силуэт и его важность в восприятии Пропорции
    Урок 4. Объем. Конструкция. Перспектива. Светотень
  • Объем
  • Конструкция объекта
  • Основы перспективы
  • Окружение
  • Основы светотени
  • Типы освещения

    Урок 5. Цвет

  • Основы теории цвета
  • Цветовой тон
  • Насыщенность
  • Цветовая температура
  • Цветовая гармония
  • Создание и применение цветовых схем
  • Цвет и эмоция
    Урок 6. Человек. Животное. Персонаж
  • Построение человека и его пропорции
  • Пластика и движение
  • Мимика и эмоции
  • Характер
  • Животные
  • Персонаж
    Урок 7. Детализация и эффекты
  • Детализация иллюстрации
  • Принцип работы “от общего к частному”
  • Спецэффекты: дым, огонь, снег, туман и др.
  • Изменение атмосферы, корректировка
  • Материалы: текстура и фактура
    Урок 8. Финальный
  • Сферы применения иллюстрации
  • Как искать тренды и следовать им
  • Разработка портфолио
  • Работа с графическим планшетом
  • Методы профессионального развития
  • Вдохновение и принцип работы с ним
  • Польза перфекционизма и его недостатки
  • Литература и полезные ресурсы
Продолжительность: 24:00:00
Качество видео: PCRec
Видео: AVC/H.264, 1152x720, ~1111kbps
Аудио: AAC, 2 ch, 191kbps

Mediainfo:

General
Complete name : D:\torrent\brush.guru - Уроки иллюстрации. Adobe Illustrator\Модуль 3\16. Урок 3. Уровень 1 - 1.mp4
Format : MPEG-4
Format profile : Base Media / Version 2
Codec ID : mp42 (isom/mp42)
File size : 8.02 MiB
Duration : 51 s 478 ms
Overall bit rate mode : Variable
Overall bit rate : 1 306 kb/s
Encoded date : UTC 2016-12-13 06:05:41
Tagged date : UTC 2016-12-13 06:05:41
gsst : 0
gstd : 51525
Video
ID : 1
Format : AVC
Format/Info : Advanced Video Codec
Format profile : High@L3.1
Format settings, CABAC : Yes
Format settings, ReFrames : 1 frame
Codec ID : avc1
Codec ID/Info : Advanced Video Coding
Duration : 51 s 467 ms
Bit rate : 1 112 kb/s
Maximum bit rate : 2 094 kb/s
Width : 1 152 pixels
Height : 720 pixels
Display aspect ratio : 16:10
Frame rate mode : Variable
Frame rate : 29.883 FPS
Minimum frame rate : 10.000 FPS
Maximum frame rate : 30.000 FPS
Color space : YUV
Chroma subsampling : 4:2:0
Bit depth : 8 bits
Scan type : Progressive
Bits/(Pixel*Frame) : 0.045
Stream size : 6.82 MiB (85%)
Tagged date : UTC 2016-12-13 06:05:41
Color range : Limited
Color primaries : BT.709
Transfer characteristics : BT.709
Matrix coefficients : BT.709
Audio
ID : 2
Format : AAC
Format/Info : Advanced Audio Codec
Format profile : LC
Codec ID : 40
Duration : 51 s 478 ms
Bit rate mode : Variable
Bit rate : 192 kb/s
Maximum bit rate : 201 kb/s
Channel(s) : 2 channels
Channel positions : Front: L R
Sampling rate : 44.1 kHz
Frame rate : 43.066 FPS (1024 spf)
Compression mode : Lossy
Stream size : 1.18 MiB (15%)
Title : IsoMedia File Produced by Google, 5-11-2011
Encoded date : UTC 2016-12-13 06:05:41
Tagged date : UTC 2016-12-13 06:05:41
Скриншоты:
Скачать .torrent

Для того, чтобы скачать торрент-файл

Константин Спирин - Основы иллюстрации в Adobe Illustrator (2017)

с нашего сайта, Вам необходимо Войти на сайт под своим логином! Если у Вас ещё нет логина, тогда Вам нужно сначала Зарегистрироваться!

Как скачивать? · Что такое торрент? · Рейтинг и ограничения

Показать сообщения:    
Ответить на тему

Константин Спирин - Основы иллюстрации в Adobe Illustrator (2017) скачать торрент (torrent), видеоуроки, тренинги, обучающее видео и видеокурсы

Текущее время: Сегодня 23:25

Часовой пояс: GMT + 4



Вы не можете начинать темы
Вы не можете отвечать на сообщения
Вы не можете редактировать свои сообщения
Вы не можете удалять свои сообщения
Вы не можете голосовать в опросах
Вы не можете прикреплять файлы к сообщениям
Вы не можете скачивать файлы