Василий Ермолаев - Финские наличники своими руками (2014)

Ответить на тему
 
Автор Сообщение

Yulya ®

Василий Ермолаев | Финские наличники своими руками (2014) PCRec [H.264/720p]- Автор (режиссер): Василий Ермолаев
Производство: Россия
Жанр: Видеокурс
Описание:
Если вы остановили свой выбор на финском наличнике, то с помощью этого обучающего курса в видеоформате вы легко осуществите задуманное!
В чем преимущество курса по изготовлению Финских наличников своими руками перед другими вариантами получения информации?
1. Курс дает полный объем информации по данному виду работ.
2. Позволяет сэкономить значительную сумму средств и большое количество времени.
3. Тонкости изготовления и обработки материала, которые обеспечат красоту и защиту вашему дому на долгие годы
4. Обеспечит простое решение проблемы без лишних усложнений
5. Максимальная практичность курса, без «лишней воды».
Курс «Финские наличники своими руками», действительно, полезная и практичная вещь.
Курс по изготовлению и установки наличников – это наилучший вариант выполнения завершающего этапа установки окон в деревянном доме. А Финские наличники, — это оптимальное решение вопроса обналички проемов и по цене, и по качеству, и по внешнему виду.
Продолжительность: 00:50:00
Качество видео: PCRec
Видео: AVC/H.264, 1280x720, ~~3214 Kbps
Аудио: AAC, 2 ch, 128 Kbps, 48.0 KHz

Mediainfo:

General
Complete name : I:finskie.nalichniki\001.mp4
Format : MPEG-4
Format profile : Base Media / Version 2
Codec ID : mp42 (mp42/isom)
File size : 134 MiB
Duration : 5mn 33s
Overall bit rate : 3 367 Kbps
Encoded date : UTC 2014-06-01 12:54:37
Tagged date : UTC 2014-06-01 12:54:37
Writing library : AVS
Video
ID : 1
Format : AVC
Format/Info : Advanced Video Codec
Format profile : Main@L3
Format settings, CABAC : Yes
Format settings, ReFrames : 2 frames
Codec ID : avc1
Codec ID/Info : Advanced Video Coding
Duration : 5mn 33s
Bit rate : 3 242 Kbps
Width : 1 280 pixels
Height : 720 pixels
Display aspect ratio : 16:9
Frame rate mode : Constant
Frame rate : 24.000 fps
Color space : YUV
Chroma subsampling : 4:2:0
Bit depth : 8 bits
Scan type : Progressive
Bits/(Pixel*Frame) : 0.147
Stream size : 129 MiB (96%)
Language : English
Encoded date : UTC 2014-06-01 12:54:37
Tagged date : UTC 2014-06-01 12:54:37
Color primaries : BT.709
Transfer characteristics : BT.709
Matrix coefficients : BT.709
mdhd_Duration : 333583
Audio
ID : 2
Format : AAC
Format/Info : Advanced Audio Codec
Format profile : LC
Codec ID : 40
Duration : 5mn 33s
Bit rate mode : Constant
Bit rate : 119 Kbps
Nominal bit rate : 128 Kbps
Channel(s) : 2 channels
Channel positions : Front: L R
Sampling rate : 44.1 KHz
Frame rate : 43.066 fps (1024 spf)
Compression mode : Lossy
Stream size : 4.73 MiB (4%)
Language : English
Encoded date : UTC 2014-06-01 12:54:37
Tagged date : UTC 2014-06-01 12:54:37
mdhd_Duration : 333369
Скриншоты:
Скачать .torrent

Для того, чтобы скачать торрент-файл

Василий Ермолаев - Финские наличники своими руками (2014)

с нашего сайта, Вам необходимо Войти на сайт под своим логином! Если у Вас ещё нет логина, тогда Вам нужно сначала Зарегистрироваться!

Как скачивать? · Что такое торрент? · Рейтинг и ограничения

Показать сообщения:    
Ответить на тему

Василий Ермолаев - Финские наличники своими руками (2014) скачать торрент (torrent), видеоуроки, тренинги, обучающее видео и видеокурсы

Текущее время: Сегодня 05:53

Часовой пояс: GMT + 4



Вы не можете начинать темы
Вы не можете отвечать на сообщения
Вы не можете редактировать свои сообщения
Вы не можете удалять свои сообщения
Вы не можете голосовать в опросах
Вы не можете прикреплять файлы к сообщениям
Вы не можете скачивать файлы