Константин Еремеев - Съёмка с естественным светом (2017)

Ответить на тему
 
Автор Сообщение

Yulya ®

Константин Еремеев | Съёмка с естественным светом (2017) PCRec [H.264/720p-LQ]- Автор (режиссер): Константин Еремеев
Жанр: Съемка фото
Описание:
Чему вы научитесь?
Узнаете о видах естественного света и их особенностях.
Поймете, какой свет делает человека красивым.
Узнаете, где найти объемный свет.
Начнете осознанно подбирать свет под мужской и женский портрет.
Перестанете бояться снимать с прямым солнечным светом.
Подберете оптимальные локации для солнечной и пасмурной погоды.
Попробуете нестандартные приемы съёмки и авторские фишки Кости Еремеева.
У вас не останется вопросов "как это снято" к большинству эффектных кадров.
Продолжительность: 14:45:37
Качество видео: PCRec
Видео: AVC/H.264, 1280x720, ~1 037 Kbps
Аудио: AAC, 2 ch, 256 Kbps

Mediainfo:

General
Complete name : E:\photo\Константин Еремеев - Съёмка с естественным светом\1 - Работа с естественным светом. Основная часть\01-01_Свет. Жесткость и направленность.mp4
Format : MPEG-4
Format profile : Base Media / Version 2
Codec ID : mp42 (mp42/mp41/isom/avc1)
File size : 36.9 MiB
Duration : 3 min 58 s
Overall bit rate mode : Variable
Overall bit rate : 1 297 kb/s
Encoded date : UTC 2016-06-29 16:41:47
Tagged date : UTC 2016-06-29 16:41:47
Video
ID : 1
Format : AVC
Format/Info : Advanced Video Codec
Format profile : High@L3.2
Format settings, CABAC : Yes
Format settings, RefFrames : 5 frames
Codec ID : avc1
Codec ID/Info : Advanced Video Coding
Duration : 3 min 58 s
Bit rate : 1 037 kb/s
Width : 1 280 pixels
Height : 720 pixels
Display aspect ratio : 16:9
Frame rate mode : Constant
Frame rate : 25.000 FPS
Color space : YUV
Chroma subsampling : 4:2:0
Bit depth : 8 bits
Scan type : Progressive
Bits/(Pixel*Frame) : 0.045
Stream size : 29.5 MiB (80%)
Writing library : x264 core 148 r11 3b70645
Encoding settings : cabac=1 / ref=5 / deblock=1:0:0 / analyse=0x3:0x113 / me=umh / subme=8 / psy=1 / psy_rd=1.00:0.00 / mixed_ref=1 / me_range=16 / chroma_me=1 / trellis=1 / 8x8dct=1 / cqm=0 / deadzone=21,11 / fast_pskip=1 / chroma_qp_offset=-2 / threads=22 / lookahead_threads=3 / sliced_threads=0 / nr=0 / decimate=1 / interlaced=0 / bluray_compat=0 / stitchable=1 / constrained_intra=0 / bframes=3 / b_pyramid=2 / b_adapt=2 / b_bias=0 / direct=3 / weightb=1 / open_gop=0 / weightp=2 / keyint=infinite / keyint_min=25 / scenecut=40 / intra_refresh=0 / rc_lookahead=50 / rc=crf / mbtree=1 / crf=20.0 / qcomp=0.60 / qpmin=5 / qpmax=69 / qpstep=4 / vbv_maxrate=2750 / vbv_bufsize=7500 / crf_max=0.0 / nal_hrd=none / filler=0 / ip_ratio=1.40 / aq=1:1.00
Encoded date : UTC 2016-06-29 16:41:47
Tagged date : UTC 2016-06-29 16:41:47
Color range : Limited
Color primaries : BT.709
Transfer characteristics : BT.709
Matrix coefficients : BT.709
Audio
ID : 2
Format : AAC
Format/Info : Advanced Audio Codec
Format profile : LC
Codec ID : 40
Duration : 3 min 58 s
Bit rate mode : Variable
Bit rate : 256 kb/s
Channel(s) : 2 channels
Channel positions : Front: L R
Sampling rate : 48.0 kHz
Frame rate : 46.875 FPS (1024 SPF)
Compression mode : Lossy
Stream size : 7.28 MiB (20%)
Encoded date : UTC 2016-06-29 16:41:47
Tagged date : UTC 2016-06-29 16:41:47

Содержание:

Лекция "Работа с естественным светом" .
Вы смотрите записанный курс. Костя снимает пару молодоженов в студии, на улице и на природе. После съемок он комментирует полученные кадры из каждой локации. В курсе так же показаны типичные ошибки, которых стоит избегать.
Домашнее задание #1.
Вы получаете набор картинок от преподавателя. Базовые приемы. Вы пробуете повторить свет из этих картинок на практике. + Каждый студент находит кадр для рубрики “Как это снято". Это кадр, который является для вас сложным и непонятным, но вам бы очень хотелось знать, как он снят.
Онлайн-сессия: проверка домашнего задания #1.
Разбор ошибок и раздача "пряников" от Кости. Анализ картинок из рубрики “Как это снято”. Ответы на ваши вопросы по теме лекции.
Домашнее задание #2.
Вы получаете новый набор картинок от преподавателя. Это следующий уровень сложности. Вы пробуете повторить свет из этих картинок. + Каждый студент находит и добавляет новую фотографию в рубрику "Как это снято".
Онлайн-сессия. Проверка домашнего задания #2.
Разбор ошибок и раздача "пряников" от Кости. Анализ картинок из рубрики “Как это снято”.
Онлайн-сессия “Q&A”.
Вы задаете любые вопросы Косте [в рамках закона].
Итоговая работа: этап 1.
Вы находите в интернете 10 кадров, которые будут вашим шот-листом для съемки итоговой серии.
Онлайн-сессия. Подготовка к съемке итоговой серии.
Анализ ваших шот-листов. Советы от Кости. Ответы на вопросы по съемке.
Итоговая работа: этап 2.
Вы снимаете серию в соответствии с шот-листом, используя самые эффектные приемы. Пополняете свое портфолио крутыми кадрами.
Онлайн-сессия: проверка итоговой работы.
Разбор серий, оценка ваших достижений.
Скриншоты:
Скачать .torrent

Для того, чтобы скачать торрент-файл

Константин Еремеев - Съёмка с естественным светом (2017)

с нашего сайта, Вам необходимо Войти на сайт под своим логином! Если у Вас ещё нет логина, тогда Вам нужно сначала Зарегистрироваться!

Как скачивать? · Что такое торрент? · Рейтинг и ограничения

Показать сообщения:    
Ответить на тему

Константин Еремеев - Съёмка с естественным светом (2017) скачать торрент (torrent), видеоуроки, тренинги, обучающее видео и видеокурсы

Текущее время: Сегодня 20:27

Часовой пояс: GMT + 4



Вы не можете начинать темы
Вы не можете отвечать на сообщения
Вы не можете редактировать свои сообщения
Вы не можете удалять свои сообщения
Вы не можете голосовать в опросах
Вы не можете прикреплять файлы к сообщениям
Вы не можете скачивать файлы