Игорь Цаплин - Обучающий свадебный видеокурс (2018)

Ответить на тему
 
Автор Сообщение

Yulya ®

Игорь Цаплин | Обучающий свадебный видеокурс (2018) PCRec [H.264/720p-LQ]- Автор (режиссер): Игорь Цаплин
Жанр: Съемка и обработка фото
Описание:
Первый Витамин Ц был огонь! Мы не боимся это говорить так как нам за него не стыдно.
Что мы сделали?
• Мы сняли несколько съемок моими глазами. Это свадебный DOOM, QUAKE 3 Arena, Halo!
• Кухня это самое интересное. Мы открыли туда дверь. Не только дверь, мы открыли холодильник и все кастрюли.
В первую очередь курс рассчитан на начинающих фотографов, которые еще не успели съесть собаку на свадебной съемке. А если вы в теме давно, то вы как никто другой знаете ценность каждой крупицы информации и 100% найдете массу интересного.
Здесь максимально полно и структурно разложены мои знания о том как надо подходить к съемке свадеб чтобы делать это хорошо и стабильно.
Короче! Все что надо и не надо делать на свадьбе.
Это не просто вид от первого лица. Это вид от первого и третьего лица с комментариями. Каждый эпизод я комментировал. Почему поступал так, что нужно делать, а что не нужно. Как можно разнообразить съемку скучных, на первый взгляд, моментов.
Продолжительность: 14:45:37
Качество видео: PCRec
Видео: AVC/H.264, 1280x720, ~1 790 Kbps
Аудио: AAC, 2 ch, 256 Kbps

Mediainfo:

General
Complete name : E:\photo\Игорь Цаплин - Обучающий свадебный видеокурс (2018)\Приветствие.mp4
Format : MPEG-4
Format profile : Base Media / Version 2
Codec ID : mp42 (mp42/mp41/isom/avc1)
File size : 94.6 MiB
Duration : 6 min 27 s
Overall bit rate mode : Variable
Overall bit rate : 2 050 kb/s
Encoded date : UTC 2018-04-08 08:52:12
Tagged date : UTC 2018-04-08 08:52:12
Video
ID : 1
Format : AVC
Format/Info : Advanced Video Codec
Format profile : High@L3.2
Format settings, CABAC : Yes
Format settings, RefFrames : 5 frames
Codec ID : avc1
Codec ID/Info : Advanced Video Coding
Duration : 6 min 27 s
Bit rate : 1 790 kb/s
Width : 1 280 pixels
Height : 720 pixels
Display aspect ratio : 16:9
Frame rate mode : Constant
Frame rate : 25.000 FPS
Color space : YUV
Chroma subsampling : 4:2:0
Bit depth : 8 bits
Scan type : Progressive
Bits/(Pixel*Frame) : 0.078
Stream size : 82.6 MiB (87%)
Writing library : x264 core 155 r10 7d0ff22
Encoding settings : cabac=1 / ref=5 / deblock=1:0:0 / analyse=0x3:0x113 / me=hex / subme=8 / psy=1 / psy_rd=1.00:0.00 / mixed_ref=1 / me_range=16 / chroma_me=1 / trellis=2 / 8x8dct=1 / cqm=0 / deadzone=21,11 / fast_pskip=1 / chroma_qp_offset=-2 / threads=22 / lookahead_threads=3 / sliced_threads=0 / nr=0 / decimate=1 / interlaced=0 / bluray_compat=0 / stitchable=1 / constrained_intra=0 / bframes=3 / b_pyramid=2 / b_adapt=2 / b_bias=0 / direct=3 / weightb=1 / open_gop=0 / weightp=2 / keyint=infinite / keyint_min=25 / scenecut=40 / intra_refresh=0 / rc_lookahead=50 / rc=crf / mbtree=1 / crf=20.0 / qcomp=0.60 / qpmin=5 / qpmax=69 / qpstep=4 / vbv_maxrate=2750 / vbv_bufsize=7500 / crf_max=0.0 / nal_hrd=none / filler=0 / ip_ratio=1.40 / aq=1:1.00
Encoded date : UTC 2018-04-08 08:52:12
Tagged date : UTC 2018-04-08 08:52:12
Color range : Limited
Color primaries : BT.709
Transfer characteristics : BT.709
Matrix coefficients : BT.709
Audio
ID : 2
Format : AAC
Format/Info : Advanced Audio Codec
Format profile : LC
Codec ID : 40
Duration : 6 min 27 s
Bit rate mode : Variable
Bit rate : 256 kb/s
Channel(s) : 2 channels
Channel positions : Front: L R
Sampling rate : 48.0 kHz
Frame rate : 46.875 FPS (1024 SPF)
Compression mode : Lossy
Stream size : 11.8 MiB (12%)
Encoded date : UTC 2018-04-08 08:52:12
Tagged date : UTC 2018-04-08 08:52:12
Скриншоты:
Скачать .torrent

Для того, чтобы скачать торрент-файл

Игорь Цаплин - Обучающий свадебный видеокурс (2018)

с нашего сайта, Вам необходимо Войти на сайт под своим логином! Если у Вас ещё нет логина, тогда Вам нужно сначала Зарегистрироваться!

Как скачивать? · Что такое торрент? · Рейтинг и ограничения

Показать сообщения:    
Ответить на тему

Игорь Цаплин - Обучающий свадебный видеокурс (2018) скачать торрент (torrent), видеоуроки, тренинги, обучающее видео и видеокурсы

Текущее время: Сегодня 07:34

Часовой пояс: GMT + 4



Вы не можете начинать темы
Вы не можете отвечать на сообщения
Вы не можете редактировать свои сообщения
Вы не можете удалять свои сообщения
Вы не можете голосовать в опросах
Вы не можете прикреплять файлы к сообщениям
Вы не можете скачивать файлы