OTUS - DevOps практики и инструменты [32 занятий из 32] (2017-2018)

Ответить на тему
 
Автор Сообщение

Yulya ®

OTUS | DevOps практики и инструменты [32 занятий из 32] (2017-2018) PCRec [H.264] - Автор (режиссер): OTUS
Жанр: Программирование
Описание:
DevOps решает задачу взаимодействия инженеров между собой с целью помочь им быстрее создавать и обновлять сервисы и приложения. На курсе будут разобраны инструменты для реализации практик инфраструктура как код, непрерывная поставка ПО и непрерывный сбор метрик (мониторинг и логирование).
Курс составлен на основе опыта, накопленного компанией Экспресс 42, которая на протяжении уже более 5 лет, помогает внедрять DevOps практики в крупных российских и зарубежных компаниях. Все занятия проводятся действующими инженерами компании.
Продолжительность: 49:13:58
Качество видео: PCRec
Видео: AVC/H.264, 1152x720-3200x1440, ~70-322 Kbps
Аудио: AAC, 2 ch, 118-278 Kbps

Mediainfo:

Общее
Полное имя : .\05 Знакомство с облачной инфраструктурой\05 Знакомство с облачной инфраструктурой.mp4
Формат : MPEG-4
Профиль формата : Base Media / Version 2
Идентификатор кодека : mp42 (mp42/isom)
Размер файла : 345 Мбайт
Продолжительность : 1 ч. 46 м.
Режим общего битрейта : Переменный
Общий поток : 454 Кбит/сек
Дата кодирования : UTC 2017-09-23 06:47:45
Дата пометки : UTC 2017-09-23 06:47:58
Видео
Идентификатор : 1
Формат : AVC
Формат/Информация : Advanced Video Codec
Профиль формата : High@L3.2
Настройки формата : CABAC / 4 Ref Frames
Параметр CABAC формата : Да
Параметр RefFrames формата : 4 кадра
Идентификатор кодека : avc1
Идентификатор кодека/Информация : Advanced Video Coding
Продолжительность : 1 ч. 46 м.
Битрейт : 185 Кбит/сек
Ширина : 1152 пикселя
Высота : 720 пикселей
Соотношение сторон : 16:10
Режим частоты кадров : Переменный
Частота кадров : 59,103 кадров/сек
Минимальная частота кадров : 4,616 кадров/сек
Максимальная частота кадров : 60,000 кадров/сек
Частота кадров в оригинале : 60,000 кадров/сек
Цветовое пространство : YUV
Субдискретизация насыщенности : 4:2:0
Битовая глубина : 8 бит
Тип развёртки : Прогрессивная
Бит/(Пиксели*Кадры) : 0.004
Размер потока : 140 Мбайт (41%)
Библиотека кодирования : x264 core 146 r2538 121396c
Настройки программы : cabac=1 / ref=3 / deblock=1:0:0 / analyse=0x3:0x133 / me=hex / subme=7 / psy=1 / psy_rd=1.00:0.00 / mixed_ref=1 / me_range=16 / chroma_me=1 / trellis=1 / 8x8dct=1 / cqm=0 / deadzone=21,11 / fast_pskip=1 / chroma_qp_offset=-2 / threads=6 / lookahead_threads=1 / sliced_threads=0 / nr=0 / decimate=1 / interlaced=0 / bluray_compat=0 / constrained_intra=0 / bframes=3 / b_pyramid=2 / b_adapt=1 / b_bias=0 / direct=1 / weightb=1 / open_gop=0 / weightp=2 / keyint=250 / keyint_min=25 / scenecut=40 / intra_refresh=0 / rc_lookahead=40 / rc=crf / mbtree=1 / crf=20.0 / qcomp=0.60 / qpmin=10 / qpmax=51 / qpstep=4 / ip_ratio=1.40 / aq=1:1.00
Дата кодирования : UTC 2017-09-23 06:47:45
Дата пометки : UTC 2017-09-23 06:47:58
Аудио
Идентификатор : 2
Формат : AAC
Формат/Информация : Advanced Audio Codec
Профиль формата : LC
Идентификатор кодека : mp4a-40-2
Продолжительность : 1 ч. 46 м.
Продолжительность оригинала : 1 ч. 46 м.
Source_Duration_FirstFrame : 167 мс.
Вид битрейта : Переменный
Битрейт : 265 Кбит/сек
Каналы : 2 канала
Расположение каналов : Front: L R
Частота : 44,1 КГц
Частота кадров : 43,066 кадра/сек (1024 SPF)
Метод сжатия : С потерями
Размер потока : 198 Мбайт (57%)
Размер потока оригинала : 198 Мбайт (57%)
Заголовок : Stereo
Дата кодирования : UTC 2017-09-23 06:47:45
Дата пометки : UTC 2017-09-23 06:47:58
Общее
Полное имя : .\08 Практика IaС Знакомство с Terraform\08 Практика IaС. Знакомство с Terraform.mp4
Формат : MPEG-4
Профиль формата : Base Media / Version 2
Идентификатор кодека : mp42 (mp42/isom)
Размер файла : 283 Мбайт
Продолжительность : 1 ч. 30 м.
Режим общего битрейта : Переменный
Общий поток : 438 Кбит/сек
Дата кодирования : UTC 2017-10-08 14:39:50
Дата пометки : UTC 2017-10-08 14:40:01
Видео
Идентификатор : 1
Формат : AVC
Формат/Информация : Advanced Video Codec
Профиль формата : High@L4
Настройки формата : CABAC / 4 Ref Frames
Параметр CABAC формата : Да
Параметр RefFrames формата : 4 кадра
Идентификатор кодека : avc1
Идентификатор кодека/Информация : Advanced Video Coding
Продолжительность : 1 ч. 30 м.
Битрейт : 212 Кбит/сек
Ширина : 1280 пикселей
Высота : 720 пикселей
Соотношение сторон : 16:9
Режим частоты кадров : Переменный
Частота кадров : 60,000 кадров/сек
Минимальная частота кадров : 10,000 кадров/сек
Максимальная частота кадров : 60,040 кадров/сек
Цветовое пространство : YUV
Субдискретизация насыщенности : 4:2:0
Битовая глубина : 8 бит
Тип развёртки : Прогрессивная
Бит/(Пиксели*Кадры) : 0.004
Размер потока : 137 Мбайт (48%)
Библиотека кодирования : x264 core 146 r2538 121396c
Настройки программы : cabac=1 / ref=3 / deblock=1:0:0 / analyse=0x3:0x133 / me=hex / subme=7 / psy=1 / psy_rd=1.00:0.00 / mixed_ref=1 / me_range=16 / chroma_me=1 / trellis=1 / 8x8dct=1 / cqm=0 / deadzone=21,11 / fast_pskip=1 / chroma_qp_offset=-2 / threads=6 / lookahead_threads=1 / sliced_threads=0 / nr=0 / decimate=1 / interlaced=0 / bluray_compat=0 / constrained_intra=0 / bframes=3 / b_pyramid=2 / b_adapt=1 / b_bias=0 / direct=1 / weightb=1 / open_gop=0 / weightp=2 / keyint=250 / keyint_min=25 / scenecut=40 / intra_refresh=0 / rc_lookahead=40 / rc=crf / mbtree=1 / crf=20.0 / qcomp=0.60 / qpmin=10 / qpmax=51 / qpstep=4 / ip_ratio=1.40 / aq=1:1.00
Дата кодирования : UTC 2017-10-08 14:39:50
Дата пометки : UTC 2017-10-08 14:40:01
Аудио
Идентификатор : 2
Формат : AAC
Формат/Информация : Advanced Audio Codec
Профиль формата : LC
Идентификатор кодека : mp4a-40-2
Продолжительность : 1 ч. 30 м.
Вид битрейта : Переменный
Битрейт : 216 Кбит/сек
Каналы : 2 канала
Расположение каналов : Front: L R
Частота : 44,1 КГц
Частота кадров : 43,066 кадра/сек (1024 SPF)
Метод сжатия : С потерями
Размер потока : 140 Мбайт (49%)
Заголовок : Stereo
Дата кодирования : UTC 2017-10-08 14:39:50
Дата пометки : UTC 2017-10-08 14:40:01
Общее
Полное имя : .\01 Первое занятие\01 Первое занятие.mp4
Формат : MPEG-4
Профиль формата : Base Media / Version 2
Идентификатор кодека : mp42 (mp42/isom)
Размер файла : 214 Мбайт
Продолжительность : 1 ч. 12 м.
Режим общего битрейта : Переменный
Общий поток : 414 Кбит/сек
Дата кодирования : UTC 2017-09-23 06:24:47
Дата пометки : UTC 2017-09-23 06:24:49
Видео
Идентификатор : 1
Формат : AVC
Формат/Информация : Advanced Video Codec
Профиль формата : High@L4.2
Настройки формата : CABAC / 4 Ref Frames
Параметр CABAC формата : Да
Параметр RefFrames формата : 4 кадра
Идентификатор кодека : avc1
Идентификатор кодека/Информация : Advanced Video Coding
Продолжительность : 1 ч. 12 м.
Битрейт : 248 Кбит/сек
Ширина : 1920 пикселей
Высота : 1080 пикселей
Соотношение сторон : 16:9
Режим частоты кадров : Переменный
Частота кадров : 30,000 кадров/сек
Минимальная частота кадров : 6,024 кадров/сек
Максимальная частота кадров : 30,303 кадров/сек
Частота кадров в оригинале : 30,303 кадров/сек
Цветовое пространство : YUV
Субдискретизация насыщенности : 4:2:0
Битовая глубина : 8 бит
Тип развёртки : Прогрессивная
Бит/(Пиксели*Кадры) : 0.004
Размер потока : 128 Мбайт (60%)
Библиотека кодирования : x264 core 146 r2538 121396c
Настройки программы : cabac=1 / ref=3 / deblock=1:0:0 / analyse=0x3:0x133 / me=hex / subme=7 / psy=1 / psy_rd=1.00:0.00 / mixed_ref=1 / me_range=16 / chroma_me=1 / trellis=1 / 8x8dct=1 / cqm=0 / deadzone=21,11 / fast_pskip=1 / chroma_qp_offset=-2 / threads=6 / lookahead_threads=1 / sliced_threads=0 / nr=0 / decimate=1 / interlaced=0 / bluray_compat=0 / constrained_intra=0 / bframes=3 / b_pyramid=2 / b_adapt=1 / b_bias=0 / direct=1 / weightb=1 / open_gop=0 / weightp=2 / keyint=250 / keyint_min=25 / scenecut=40 / intra_refresh=0 / rc_lookahead=40 / rc=crf / mbtree=1 / crf=20.0 / qcomp=0.60 / qpmin=10 / qpmax=51 / qpstep=4 / ip_ratio=1.40 / aq=1:1.00
Дата кодирования : UTC 2017-09-23 06:24:47
Дата пометки : UTC 2017-09-23 06:24:49
Аудио
Идентификатор : 2
Формат : AAC
Формат/Информация : Advanced Audio Codec
Профиль формата : LC
Идентификатор кодека : mp4a-40-2
Продолжительность : 1 ч. 12 м.
Duration_FirstFrame : 468 мс.
Вид битрейта : Переменный
Битрейт : 160 Кбит/сек
Каналы : 2 канала
Расположение каналов : Front: L R
Частота : 44,1 КГц
Частота кадров : 43,066 кадра/сек (1024 SPF)
Метод сжатия : С потерями
Размер потока : 82,7 Мбайт (39%)
Заголовок : Stereo
Дата кодирования : UTC 2017-09-23 06:24:47
Дата пометки : UTC 2017-09-23 06:24:49
Общее
Полное имя : .\13 Разработка и тестирование Ansible ролей\13 Разработка и тестирование Ansible ролей.mp4
Формат : MPEG-4
Профиль формата : Base Media
Идентификатор кодека : isom (isom/iso2/avc1/mp41)
Размер файла : 297 Мбайт
Продолжительность : 1 ч. 39 м.
Режим общего битрейта : Переменный
Общий поток : 418 Кбит/сек
Программа кодирования : Lavf57.71.100
Видео
Идентификатор : 1
Формат : AVC
Формат/Информация : Advanced Video Codec
Профиль формата : High@L5
Настройки формата : CABAC / 4 Ref Frames
Параметр CABAC формата : Да
Параметр RefFrames формата : 4 кадра
Идентификатор кодека : avc1
Идентификатор кодека/Информация : Advanced Video Coding
Продолжительность : 1 ч. 39 м.
Битрейт : 289 Кбит/сек
Ширина : 3200 пикселей
Высота : 1440 пикселей
Соотношение сторон : 2,222
Режим частоты кадров : Постоянный
Частота кадров : 25,000 кадров/сек
Цветовое пространство : YUV
Субдискретизация насыщенности : 4:2:0
Битовая глубина : 8 бит
Тип развёртки : Прогрессивная
Бит/(Пиксели*Кадры) : 0.003
Размер потока : 206 Мбайт (69%)
Библиотека кодирования : x264 core 148 r2643 5c65704
Настройки программы : cabac=1 / ref=3 / deblock=1:0:0 / analyse=0x3:0x113 / me=hex / subme=7 / psy=1 / psy_rd=1.00:0.00 / mixed_ref=1 / me_range=16 / chroma_me=1 / trellis=1 / 8x8dct=1 / cqm=0 / deadzone=21,11 / fast_pskip=1 / chroma_qp_offset=-2 / threads=12 / lookahead_threads=2 / sliced_threads=0 / nr=0 / decimate=1 / interlaced=0 / bluray_compat=0 / constrained_intra=0 / bframes=3 / b_pyramid=2 / b_adapt=1 / b_bias=0 / direct=1 / weightb=1 / open_gop=0 / weightp=2 / keyint=250 / keyint_min=25 / scenecut=40 / intra_refresh=0 / rc_lookahead=40 / rc=crf / mbtree=1 / crf=23.0 / qcomp=0.60 / qpmin=0 / qpmax=69 / qpstep=4 / ip_ratio=1.40 / aq=1:1.00
Аудио
Идентификатор : 2
Формат : AAC
Формат/Информация : Advanced Audio Codec
Профиль формата : LC
Идентификатор кодека : mp4a-40-2
Продолжительность : 1 ч. 39 м.
Duration_LastFrame : -34 мс.
Вид битрейта : Переменный
Битрейт : 124 Кбит/сек
Максимальный битрейт : 128 Кбит/сек
Каналы : 2 канала
Расположение каналов : Front: L R
Частота : 22,05 КГц
Частота кадров : 21,533 кадра/сек (1024 SPF)
Метод сжатия : С потерями
Размер потока : 88,2 Мбайт (30%)
Default : Да
AlternateGroup/String : 1

Программа курса:

Занятие 1: Что такое DevOps и история его развития.
Как DevOps меняет жизнь и работу компаний. DevOps как профессия. Обзор курса.
Занятие 2: DevOps как система.
Практики и методики. DevOps компетенции.
Занятие 3: Система контроля версий как основа разработки и поставки ПО. Знакомство с Git.
Занятие 4: Локальное окружение инженера. ChatOps и визуализация рабочих процессов.
Занятие 5: Знакомство с облачной инфраструктурой и облачными сервисами.
Практики безопасного доступа к ресурсам (SSH, Bastion Host, VPN).
Занятие 6: Основные сервисы Google Cloud Platform (GCP).
Способы управления ресурсами в GCP.
Занятие 7: Командная работа с Git. Работа в GitHub. Продвинутые команды Git
Занятие 8: Модели управления инфраструктурой.
Работа с образами VM в облаке. Знакомство с Packer и экосистемой компании HashiCorp.
Занятие 9: Практика Infrastructure as a Code (IaC).
Знакомство с Terraform.
Занятие 10: Принципы организации инфраструктурного кода и работа над инфраструктурой в команде на примере Terraform.
Занятие 11: Управление конфигурацией.
Основные DevOps инструменты: Chef, Ansible, Puppet, Salt. Знакомство с Ansible.
Занятие 12: Продолжение знакомства с Ansible: templates, handlers, dynamic inventory, vault, tags.
Занятие 13: Принципы организации кода для управления конфигурацией.
Ansible роли, управление настройками нескольких окружений и best practices.
Занятие 14: Локальная разработка Ansible ролей с Vagrant. Тестирование конфигурации.
Занятие 15: Технология контейнеризации. Введение в Docker.
Занятие 16: Docker контейнеры. Docker под капотом
Занятие 17: Docker образы. Микросервисы
Занятие 18: Сетевое взаимодействие Docker контейнеров. Docker Compose. Тестирование образов
Занятие 19: Технология непрерывной поставки ПО
Занятие 20: Устройство Gitlab CI. Построение процесса непрерывной интеграции
Занятие 21: Непрерывная поставка с Gitlab CI
Занятие 22: Введение в мониторинг. Модели и принципы работы систем мониторинга
Занятие 23: Мониторинг приложения и инфраструктуры
Занятие 24: Визуализация и анализ результатов мониторинга. Знакомство с системами рассылки оповещений, Алертинг
Занятие 25: Применение инструментов для обработки лог данных
Что такое логи и зачем они нужны? Системы централизованного хранения лог данных, требования к ним и примеры. Форматы и варианты логирования приложений
Занятие 26: Применение системы логирования в инфраструктуре на основе Docker.
Рассмотрение систем распределенной отладки данных (Distributed tracing)
Занятие 27: Контейнерная оркестрация.
Примеры известных и актуальных систем оркестрации (DC/OS, Aurora, Nomad, Docker Swarm)
Занятие 28: Детальное знакомство с Docker Swarm.
Работа сети в кластере, политики учета и деплоя приложений в Swarm mode.
Занятие 29: Введение в Kubernetes.
Основные концепции и архитектура системы.
Занятие 30: Основные модели безопасности и контроллеры в Kubernetes
Занятие 31: Ingress-контроллеры и сервисы в Kubernetes.
Работа с удаленными хранилищами данных.
Занятие 32: Интеграция Kubernetes в GitlabCI.
Использование формата упаковки приложений Charts в Kubernetes Helm.
Занятие 33: Масштабирование в Kubernetes

История обновлений:

12.05.2018 - Торрент файл обновлен.
- Добавлены занятия 14-32;
Скриншоты:
Скачать .torrent

Для того, чтобы скачать торрент-файл

OTUS - DevOps практики и инструменты [32 занятий из 32] (2017-2018)

с нашего сайта, Вам необходимо Войти на сайт под своим логином! Если у Вас ещё нет логина, тогда Вам нужно сначала Зарегистрироваться!

Как скачивать? · Что такое торрент? · Рейтинг и ограничения

Показать сообщения:    
Ответить на тему

OTUS - DevOps практики и инструменты [32 занятий из 32] (2017-2018) скачать торрент (torrent), видеоуроки, тренинги, обучающее видео и видеокурсы

Текущее время: Сегодня 15:59

Часовой пояс: GMT + 4



Вы не можете начинать темы
Вы не можете отвечать на сообщения
Вы не можете редактировать свои сообщения
Вы не можете удалять свои сообщения
Вы не можете голосовать в опросах
Вы не можете прикреплять файлы к сообщениям
Вы не можете скачивать файлы