Lynda.com - 3D Printing with ZBrush (2014)

Ответить на тему
 
Автор Сообщение

Yulya ®

Lynda.com | 3D Printing with ZBrush (2014) PCRec [H.264/720p-LQ] [RU/EN] - Автор (режиссер): Ryan Kittleson
Производство: Lynda.com
Жанр: 3D графика, 3D печать
Описание:
3D печать с ZBrush.
Готовьте свои модели для 3D печати с Zbrush, популярной программой для 3D моделирования и цифровой скульптуры. Изучите, как измерять ваши модели в реальных единицах измерения, так что всё будет печататься в правильном размере.
Экономьте на материалах, создавая пустотелые модели. Будьте уверенными в том, что цвета печатаются правильно.
Автор, художник и фанат 3D, Райан Китлсон, также поделится с вами некоторыми продвинутыми приёмами и трюками, которые позволят получить лучший результат с конкретно вашим 3D-принтером.
Продолжительность: 01:14:46
Качество видео: PCRec
Перевод: Дублированный, AlexJP
Язык озвучки: Русский, Английский
Видео: AVC/H.264, 1280x720, ~144-1448 Kbps
Аудио 1: AAC, 1 ch, 128 Kbps - Русский, дублированный (AlexJP)
Аудио 2: AAC, 1 ch, 128 Kbps - Английский, оригинал

Mediainfo:

General
Complete name : 1_01. Deciding on hollow or solid 3D prints.mp4
Format : MPEG-4
Format profile : Base Media
Codec ID : isom
File size : 9.98 MiB
Duration : 1mn 55s
Overall bit rate : 723 Kbps
Video
ID : 1
Format : AVC
Format/Info : Advanced Video Codec
Format profile : Main@L3.1
Format settings, CABAC : Yes
Format settings, ReFrames : 3 frames
Codec ID : avc1
Codec ID/Info : Advanced Video Coding
Duration : 1mn 55s
Bit rate : 460 Kbps
Width : 1 280 pixels
Height : 720 pixels
Display aspect ratio : 16:9
Frame rate mode : Constant
Frame rate : 15.000 fps
Color space : YUV
Chroma subsampling : 4:2:0
Bit depth : 8 bits
Scan type : Progressive
Bits/(Pixel*Frame) : 0.033
Stream size : 6.35 MiB (64%)
Language : English
Audio #1
ID : 2
Format : AAC
Format/Info : Advanced Audio Codec
Format profile : LC
Codec ID : 40
Duration : 1mn 55s
Duration_LastFrame : 41ms
Bit rate mode : Constant
Bit rate : 128 Kbps
Channel(s) : 2 channels
Channel(s)_Original : 1 channel
Channel positions : Front: C
Sampling rate : 44.1 KHz
Compression mode : Lossy
Stream size : 1.77 MiB (18%)
Language : Russian
Audio #2
ID : 3
Format : AAC
Format/Info : Advanced Audio Codec
Format profile : LC
Codec ID : 40
Duration : 1mn 55s
Bit rate mode : Constant
Bit rate : 128 Kbps
Channel(s) : 2 channels
Channel(s)_Original : 1 channel
Channel positions : Front: C
Sampling rate : 44.1 KHz
Compression mode : Lossy
Stream size : 1.76 MiB (18%)
Language : English

Дополнительная информация:

Файлы упражнений прилагаются к курсу.
Дополнительная информация на офсайте.
Как выбрать звуковую дорожку по умолчанию (ссылка).
Скриншоты:

Дополнительные скриншоты:

Скачать .torrent

Для того, чтобы скачать торрент-файл

Lynda.com - 3D Printing with ZBrush (2014)

с нашего сайта, Вам необходимо Войти на сайт под своим логином! Если у Вас ещё нет логина, тогда Вам нужно сначала Зарегистрироваться!

Как скачивать? · Что такое торрент? · Рейтинг и ограничения

Показать сообщения:    
Ответить на тему

Lynda.com - 3D Printing with ZBrush (2014) скачать торрент (torrent), видеоуроки, тренинги, обучающее видео и видеокурсы

Текущее время: Сегодня 00:05

Часовой пояс: GMT + 4



Вы не можете начинать темы
Вы не можете отвечать на сообщения
Вы не можете редактировать свои сообщения
Вы не можете удалять свои сообщения
Вы не можете голосовать в опросах
Вы не можете прикреплять файлы к сообщениям
Вы не можете скачивать файлы