Олег Молчанов - Практический курс парсинга сайтов на Python (2018)

Ответить на тему
 
Автор Сообщение

Yulya ®

Олег Молчанов | Практический курс парсинга сайтов на Python (2018) PCRec [H.264] - Автор (режиссер): Олег Молчанов
Жанр: Программирование, Python
Описание:
Максимальное приближение к задачам реального парсинга
Отработка на 13 парсерах разной сложности
Продолжительность: 06:50:07
Качество видео: PCRec
Видео: AVC/H.264, 1360x768, ~211 Kbps
Аудио: AAC, 2 ch, 128 Kbps

Mediainfo:

Format                      : MPEG-4
Format profile : Base Media
Codec ID : isom (isom/iso2/avc1/mp41)
File size : 74.8 MiB
Duration : 30mn 6s
Overall bit rate : 348 Kbps
Movie name : Практический курс парсинга сайтов на Python
Performer : Oleg Molchanov
Writing application : Lavf56.40.101
Video
ID : 1
Format : AVC
Format/Info : Advanced Video Codec
Format profile : High@L3.2
Format settings, CABAC : Yes
Format settings, ReFrames : 4 frames
Codec ID : avc1
Codec ID/Info : Advanced Video Coding
Duration : 30mn 6s
Bit rate : 211 Kbps
Width : 1 360 pixels
Height : 768 pixels
Display aspect ratio : 16:9
Frame rate mode : Constant
Frame rate : 30.000 fps
Color space : YUV
Chroma subsampling : 4:2:0
Bit depth : 8 bits
Scan type : Progressive
Bits/(Pixel*Frame) : 0.007
Stream size : 45.4 MiB (61%)
Writing library : x264 core 148 r2643 5c65704
Encoding settings : cabac=1 / ref=3 / deblock=1:0:0 / analyse=0x3:0x113 / me=hex / subme=7 / psy=1 / psy_rd=1.00:0.00 / mixed_ref=1 / me_range=16 / chroma_me=1 / trellis=1 / 8x8dct=1 / cqm=0 / deadzone=21,11 / fast_pskip=1 / chroma_qp_offset=-2 / threads=3 / lookahead_threads=1 / sliced_threads=0 / nr=0 / decimate=1 / interlaced=0 / bluray_compat=0 / constrained_intra=0 / bframes=3 / b_pyramid=2 / b_adapt=1 / b_bias=0 / direct=1 / weightb=1 / open_gop=0 / weightp=2 / keyint=250 / keyint_min=25 / scenecut=40 / intra_refresh=0 / rc_lookahead=40 / rc=crf / mbtree=1 / crf=23.0 / qcomp=0.60 / qpmin=0 / qpmax=69 / qpstep=4 / ip_ratio=1.40 / aq=1:1.00
Language : English
Audio
ID : 2
Format : AAC
Format/Info : Advanced Audio Codec
Format profile : LC
Codec ID : 40
Duration : 30mn 6s
Duration_LastFrame : -10ms
Bit rate mode : Constant
Bit rate : 128 Kbps
Channel(s) : 2 channels
Channel positions : Front: L R
Sampling rate : 44.1 KHz
Frame rate : 43.066 fps (1024 spf)
Compression mode : Lossy
Stream size : 27.6 MiB (37%)
Default : Yes
Alternate group : 1

Программа курса

Основы BeautifulSoup
Парсинг табличных данных
Работа с пагинацией (2 вида)
Чтение и запись данных в CSV
Запись данных в PostgreSQL
Продвинутые методы работы с BeautifulSoup
Парсинг данных, подгружаемых при помощи AJAX (2 видео)
Парсинг в несколько процессов
Использование прокси
Парсинг данных, подгружаемых JQuery
Смена User-Agent

Дополнительная информация:

Внутри каждой папки с видео есть исходники.
Скриншоты:
Скачать .torrent

Для того, чтобы скачать торрент-файл

Олег Молчанов - Практический курс парсинга сайтов на Python (2018)

с нашего сайта, Вам необходимо Войти на сайт под своим логином! Если у Вас ещё нет логина, тогда Вам нужно сначала Зарегистрироваться!

Как скачивать? · Что такое торрент? · Рейтинг и ограничения

Показать сообщения:    
Ответить на тему

Олег Молчанов - Практический курс парсинга сайтов на Python (2018) скачать торрент (torrent), видеоуроки, тренинги, обучающее видео и видеокурсы

Текущее время: Сегодня 07:14

Часовой пояс: GMT + 4



Вы не можете начинать темы
Вы не можете отвечать на сообщения
Вы не можете редактировать свои сообщения
Вы не можете удалять свои сообщения
Вы не можете голосовать в опросах
Вы не можете прикреплять файлы к сообщениям
Вы не можете скачивать файлы