Питер Хан - Динамический эскиз / Peter Han - Dynamic Sketching [часть 1] (2014)

Ответить на тему
 
Автор Сообщение

Yulya ®

Питер Хан | Динамический эскиз / Peter Han | Dynamic Sketching [часть 1] (2014) WEBRip [H.264/720p] [EN]- Автор (режиссер): Питер Хан / Peter Han
Производство: CGMA 2D Academy
Жанр: Скетчинг, Рисунок
Описание:
Eрок, призванный развить в вас основные навыки создания эскиза. Студенты узнают, как использовать простейшие формы для рисования объектов. Используются ручка и тонированная бумага. Так же студенты будут учиться чувствовать себя уверенно.
Содержание:
  • Разминочные упражнения.
  • Изучение органических форм, контуров и текстур.
  • Анализ геометрических форм, основы перспективы и теней.
  • Изучение того, как на основе всего увиденного выше создать хороший эскиз.
  • Использование маркеров и дополнительных материалов для усиления глубины изображения, объема и текстурs.
  • Наблюдение и рисование органических форм.
  • Редизайн. Введение в то, как пользоваться референсами для улучшения вашего концепта..
  • Завершение и переосмысление
Продолжительность: 04:51:57
Качество видео: WEBRip
Язык: Английский
Видео: AVC/H.264, 1280x720, ~1190 Kbps
Аудио: AAC, 2 ch, 192 Kbps

Mediainfo:

General
Complete name : F:\CGMA - Dynamic Sketching 1 with Peter Han\Peter Han Week 1.mp4
Format : MPEG-4
Format profile : Base Media / Version 2
Codec ID : mp42 (isom/mp42)
File size : 309 MiB
Duration : 30 min 28 s
Overall bit rate mode : Variable
Overall bit rate : 1 416 kb/s
Encoded date : UTC 2014-11-24 09:11:10
Tagged date : UTC 2014-11-24 09:11:10
gsst : 0
gstd : 1828895
gssd : B4A7DD821MM1436458294998036
gshh : r1---sn-cg07luel.googlevideo.com
Video
ID : 1
Format : AVC
Format/Info : Advanced Video Codec
Format profile : High@L3.1
Format settings : CABAC / 1 Ref Frames
Format settings, CABAC : Yes
Format settings, RefFrames : 1 frame
Format settings, GOP : M=1, N=60
Codec ID : avc1
Codec ID/Info : Advanced Video Coding
Duration : 30 min 28 s
Bit rate : 1 222 kb/s
Maximum bit rate : 2 874 kb/s
Width : 1 280 pixels
Height : 720 pixels
Display aspect ratio : 16:9
Frame rate mode : Constant
Frame rate : 29.970 (30000/1001) FPS
Color space : YUV
Chroma subsampling : 4:2:0
Bit depth : 8 bits
Scan type : Progressive
Bits/(Pixel*Frame) : 0.044
Stream size : 266 MiB (86%)
Tagged date : UTC 2014-11-24 09:11:45
Audio
ID : 2
Format : AAC
Format/Info : Advanced Audio Codec
Format profile : LC
Codec ID : mp4a-40-2
Duration : 30 min 28 s
Bit rate mode : Variable
Bit rate : 192 kb/s
Maximum bit rate : 203 kb/s
Channel(s) : 2 channels
Channel positions : Front: L R
Sampling rate : 44.1 kHz
Frame rate : 43.066 FPS (1024 SPF)
Compression mode : Lossy
Stream size : 41.9 MiB (14%)
Title : IsoMedia File Produced by Google, 5-11-2011
Encoded date : UTC 2014-11-24 09:11:31
Tagged date : UTC 2014-11-24 09:11:45
General
Complete name : F:\CGMA - Dynamic Sketching 1 with Peter Han\Peter Han Week 2.mp4
Format : MPEG-4
Format profile : Base Media / Version 2
Codec ID : mp42 (mp42/mp41)
File size : 290 MiB
Duration : 41 min 3 s
Overall bit rate mode : Variable
Overall bit rate : 987 kb/s
Encoded date : UTC 2011-03-05 11:44:41
Tagged date : UTC 2011-03-05 11:44:41
TIM : 00;00;00;00
TSC : 30000
TSZ : 1001
Video
ID : 1
Format : AVC
Format/Info : Advanced Video Codec
Format profile : Main@L3.2
Format settings : CABAC / 3 Ref Frames
Format settings, CABAC : Yes
Format settings, RefFrames : 3 frames
Codec ID : avc1
Codec ID/Info : Advanced Video Coding
Duration : 41 min 3 s
Bit rate : 794 kb/s
Width : 1 280 pixels
Height : 720 pixels
Display aspect ratio : 16:9
Frame rate mode : Constant
Frame rate : 29.970 (29970/1000) FPS
Original frame rate : 29.970 (30000/1001) FPS
Standard : NTSC
Color space : YUV
Chroma subsampling : 4:2:0
Bit depth : 8 bits
Scan type : Progressive
Bits/(Pixel*Frame) : 0.029
Stream size : 233 MiB (80%)
Language : English
Encoded date : UTC 2011-03-05 11:44:41
Tagged date : UTC 2011-03-05 11:44:41
Color range : Limited
Audio
ID : 2
Format : AAC
Format/Info : Advanced Audio Codec
Format profile : LC
Codec ID : mp4a-40-2
Duration : 41 min 3 s
Source duration : 41 min 3 s
Bit rate mode : Variable
Bit rate : 192 kb/s
Maximum bit rate : 292 kb/s
Channel(s) : 2 channels
Channel positions : Front: L R
Sampling rate : 48.0 kHz
Frame rate : 46.875 FPS (1024 SPF)
Compression mode : Lossy
Stream size : 55.6 MiB (19%)
Source stream size : 55.6 MiB (19%)
Language : English
Encoded date : UTC 2011-03-05 11:44:41
Tagged date : UTC 2011-03-05 11:44:41
General
Complete name : F:\CGMA - Dynamic Sketching 1 with Peter Han\Peter Han Week 3.mp4
Format : MPEG-4
Format profile : Base Media / Version 2
Codec ID : mp42 (mp42/mp41)
File size : 249 MiB
Duration : 35 min 16 s
Overall bit rate mode : Variable
Overall bit rate : 988 kb/s
Encoded date : UTC 2011-02-03 01:40:30
Tagged date : UTC 2011-02-03 01:40:30
TIM : 00:00:00:00
TSC : 30000
TSZ : 1001
Video
ID : 1
Format : AVC
Format/Info : Advanced Video Codec
Format profile : Main@L3.2
Format settings : CABAC / 3 Ref Frames
Format settings, CABAC : Yes
Format settings, RefFrames : 3 frames
Codec ID : avc1
Codec ID/Info : Advanced Video Coding
Duration : 35 min 16 s
Bit rate : 795 kb/s
Width : 1 280 pixels
Height : 720 pixels
Display aspect ratio : 16:9
Frame rate mode : Constant
Frame rate : 24.000 FPS
Standard : NTSC
Color space : YUV
Chroma subsampling : 4:2:0
Bit depth : 8 bits
Scan type : Progressive
Bits/(Pixel*Frame) : 0.036
Stream size : 200 MiB (80%)
Language : English
Encoded date : UTC 2011-02-03 01:40:30
Tagged date : UTC 2011-02-03 01:40:30
Color range : Limited
Audio
ID : 2
Format : AAC
Format/Info : Advanced Audio Codec
Format profile : LC
Codec ID : mp4a-40-2
Duration : 35 min 16 s
Source duration : 35 min 16 s
Bit rate mode : Variable
Bit rate : 192 kb/s
Maximum bit rate : 285 kb/s
Channel(s) : 2 channels
Channel positions : Front: L R
Sampling rate : 48.0 kHz
Frame rate : 46.875 FPS (1024 SPF)
Compression mode : Lossy
Stream size : 47.8 MiB (19%)
Source stream size : 47.8 MiB (19%)
Language : English
Encoded date : UTC 2011-02-03 01:40:30
Tagged date : UTC 2011-02-03 01:40:30
General
Complete name : F:\CGMA - Dynamic Sketching 1 with Peter Han\Peter Han Week 4-1.mp4
Format : MPEG-4
Format profile : Base Media / Version 2
Codec ID : mp42 (mp42/mp41)
File size : 366 MiB
Duration : 16 min 1 s
Overall bit rate mode : Variable
Overall bit rate : 3 188 kb/s
Encoded date : UTC 2011-02-21 00:08:22
Tagged date : UTC 2011-02-21 00:08:22
TIM : 00;00;00;00
TSC : 24000
TSZ : 1001
Video
ID : 1
Format : AVC
Format/Info : Advanced Video Codec
Format profile : Main@L3.2
Format settings : CABAC / 3 Ref Frames
Format settings, CABAC : Yes
Format settings, RefFrames : 3 frames
Format settings, GOP : M=4, N=60
Codec ID : avc1
Codec ID/Info : Advanced Video Coding
Duration : 16 min 1 s
Bit rate : 2 994 kb/s
Width : 1 280 pixels
Height : 720 pixels
Display aspect ratio : 16:9
Frame rate mode : Constant
Frame rate : 29.970 (29970/1000) FPS
Original frame rate : 29.970 (30000/1001) FPS
Standard : NTSC
Color space : YUV
Chroma subsampling : 4:2:0
Bit depth : 8 bits
Scan type : Progressive
Bits/(Pixel*Frame) : 0.108
Stream size : 343 MiB (94%)
Language : English
Encoded date : UTC 2011-02-21 00:08:22
Tagged date : UTC 2011-02-21 00:08:22
Color range : Limited
Audio
ID : 2
Format : AAC
Format/Info : Advanced Audio Codec
Format profile : LC
Codec ID : mp4a-40-2
Duration : 16 min 1 s
Source duration : 16 min 2 s
Bit rate mode : Variable
Bit rate : 192 kb/s
Maximum bit rate : 278 kb/s
Channel(s) : 2 channels
Channel positions : Front: L R
Sampling rate : 48.0 kHz
Frame rate : 46.875 FPS (1024 SPF)
Compression mode : Lossy
Stream size : 21.7 MiB (6%)
Source stream size : 21.7 MiB (6%)
Language : English
Encoded date : UTC 2011-02-21 00:08:22
Tagged date : UTC 2011-02-21 00:08:22
General
Complete name : F:\CGMA - Dynamic Sketching 1 with Peter Han\Peter Han Week 4-2.mp4
Format : MPEG-4
Format profile : Base Media / Version 2
Codec ID : mp42 (mp42/mp41)
File size : 405 MiB
Duration : 17 min 45 s
Overall bit rate mode : Variable
Overall bit rate : 3 188 kb/s
Encoded date : UTC 2011-02-21 00:26:19
Tagged date : UTC 2011-02-21 00:26:19
TIM : 00;00;00;00
TSC : 24000
TSZ : 1001
Video
ID : 1
Format : AVC
Format/Info : Advanced Video Codec
Format profile : Main@L3.2
Format settings : CABAC / 3 Ref Frames
Format settings, CABAC : Yes
Format settings, RefFrames : 3 frames
Format settings, GOP : M=4, N=60
Codec ID : avc1
Codec ID/Info : Advanced Video Coding
Duration : 17 min 45 s
Source duration : 17 min 45 s
Bit rate : 2 994 kb/s
Width : 1 280 pixels
Height : 720 pixels
Display aspect ratio : 16:9
Frame rate mode : Constant
Frame rate : 29.970 (29970/1000) FPS
Original frame rate : 29.970 (30000/1001) FPS
Standard : NTSC
Color space : YUV
Chroma subsampling : 4:2:0
Bit depth : 8 bits
Scan type : Progressive
Bits/(Pixel*Frame) : 0.108
Stream size : 380 MiB (94%)
Source stream size : 380 MiB (94%)
Language : English
Encoded date : UTC 2011-02-21 00:26:19
Tagged date : UTC 2011-02-21 00:26:19
Color range : Limited
Audio
ID : 2
Format : AAC
Format/Info : Advanced Audio Codec
Format profile : LC
Codec ID : mp4a-40-2
Duration : 17 min 45 s
Source duration : 17 min 45 s
Bit rate mode : Variable
Bit rate : 192 kb/s
Maximum bit rate : 281 kb/s
Channel(s) : 2 channels
Channel positions : Front: L R
Sampling rate : 48.0 kHz
Frame rate : 46.875 FPS (1024 SPF)
Compression mode : Lossy
Stream size : 24.1 MiB (6%)
Source stream size : 24.1 MiB (6%)
Language : English
Encoded date : UTC 2011-02-21 00:26:19
Tagged date : UTC 2011-02-21 00:26:19
General
Complete name : F:\CGMA - Dynamic Sketching 1 with Peter Han\Peter Han Week 5.mp4
Format : MPEG-4
Format profile : Base Media / Version 2
Codec ID : mp42 (mp42/mp41)
File size : 214 MiB
Duration : 38 min 3 s
Overall bit rate mode : Variable
Overall bit rate : 785 kb/s
Encoded date : UTC 2011-02-02 15:50:06
Tagged date : UTC 2011-02-02 15:50:06
TIM : 00:00:03:05
TSC : 30000
TSZ : 1001
Video
ID : 1
Format : AVC
Format/Info : Advanced Video Codec
Format profile : Main@L3.2
Format settings : CABAC / 3 Ref Frames
Format settings, CABAC : Yes
Format settings, RefFrames : 3 frames
Format settings, GOP : M=4, N=33
Codec ID : avc1
Codec ID/Info : Advanced Video Coding
Duration : 38 min 3 s
Bit rate : 592 kb/s
Width : 1 280 pixels
Height : 720 pixels
Display aspect ratio : 16:9
Frame rate mode : Constant
Frame rate : 24.000 FPS
Standard : NTSC
Color space : YUV
Chroma subsampling : 4:2:0
Bit depth : 8 bits
Scan type : Progressive
Bits/(Pixel*Frame) : 0.027
Stream size : 161 MiB (75%)
Language : English
Encoded date : UTC 2011-02-02 15:50:06
Tagged date : UTC 2011-02-02 15:50:06
Color range : Limited
Audio
ID : 2
Format : AAC
Format/Info : Advanced Audio Codec
Format profile : LC
Codec ID : mp4a-40-2
Duration : 38 min 3 s
Source duration : 38 min 3 s
Bit rate mode : Variable
Bit rate : 192 kb/s
Maximum bit rate : 287 kb/s
Channel(s) : 2 channels
Channel positions : Front: L R
Sampling rate : 48.0 kHz
Frame rate : 46.875 FPS (1024 SPF)
Compression mode : Lossy
Stream size : 51.5 MiB (24%)
Source stream size : 51.6 MiB (24%)
Language : English
Encoded date : UTC 2011-02-02 15:50:06
Tagged date : UTC 2011-02-02 15:50:06
General
Complete name : F:\CGMA - Dynamic Sketching 1 with Peter Han\Peter Han Week 6-1.mp4
Format : MPEG-4
Format profile : Base Media / Version 2
Codec ID : mp42 (mp42/mp41)
File size : 297 MiB
Duration : 13 min 0 s
Overall bit rate mode : Variable
Overall bit rate : 3 188 kb/s
Encoded date : UTC 2011-02-25 05:45:14
Tagged date : UTC 2011-02-25 05:45:14
TIM : 00;00;00;00
TSC : 24000
TSZ : 1001
Video
ID : 1
Format : AVC
Format/Info : Advanced Video Codec
Format profile : Main@L3.2
Format settings : CABAC / 3 Ref Frames
Format settings, CABAC : Yes
Format settings, RefFrames : 3 frames
Codec ID : avc1
Codec ID/Info : Advanced Video Coding
Duration : 13 min 0 s
Source duration : 13 min 0 s
Bit rate : 2 994 kb/s
Width : 1 280 pixels
Height : 720 pixels
Display aspect ratio : 16:9
Frame rate mode : Constant
Frame rate : 29.970 (29970/1000) FPS
Original frame rate : 29.970 (30000/1001) FPS
Standard : NTSC
Color space : YUV
Chroma subsampling : 4:2:0
Bit depth : 8 bits
Scan type : Progressive
Bits/(Pixel*Frame) : 0.108
Stream size : 279 MiB (94%)
Source stream size : 279 MiB (94%)
Language : English
Encoded date : UTC 2011-02-25 05:45:14
Tagged date : UTC 2011-02-25 05:45:14
Color range : Limited
Audio
ID : 2
Format : AAC
Format/Info : Advanced Audio Codec
Format profile : LC
Codec ID : mp4a-40-2
Duration : 13 min 0 s
Source duration : 13 min 0 s
Bit rate mode : Variable
Bit rate : 192 kb/s
Maximum bit rate : 288 kb/s
Channel(s) : 2 channels
Channel positions : Front: L R
Sampling rate : 48.0 kHz
Frame rate : 46.875 FPS (1024 SPF)
Compression mode : Lossy
Stream size : 17.6 MiB (6%)
Source stream size : 17.6 MiB (6%)
Language : English
Encoded date : UTC 2011-02-25 05:45:14
Tagged date : UTC 2011-02-25 05:45:14
General
Complete name : F:\CGMA - Dynamic Sketching 1 with Peter Han\Peter Han Week 6-2.mp4
Format : MPEG-4
Format profile : Base Media / Version 2
Codec ID : mp42 (mp42/mp41)
File size : 304 MiB
Duration : 13 min 20 s
Overall bit rate mode : Variable
Overall bit rate : 3 189 kb/s
Encoded date : UTC 2011-02-25 05:57:28
Tagged date : UTC 2011-02-25 05:57:28
TIM : 00;00;00;00
TSC : 24000
TSZ : 1001
Video
ID : 1
Format : AVC
Format/Info : Advanced Video Codec
Format profile : Main@L3.2
Format settings : CABAC / 3 Ref Frames
Format settings, CABAC : Yes
Format settings, RefFrames : 3 frames
Codec ID : avc1
Codec ID/Info : Advanced Video Coding
Duration : 13 min 20 s
Source duration : 13 min 20 s
Bit rate : 2 995 kb/s
Width : 1 280 pixels
Height : 720 pixels
Display aspect ratio : 16:9
Frame rate mode : Constant
Frame rate : 29.970 (29970/1000) FPS
Original frame rate : 29.970 (30000/1001) FPS
Standard : NTSC
Color space : YUV
Chroma subsampling : 4:2:0
Bit depth : 8 bits
Scan type : Progressive
Bits/(Pixel*Frame) : 0.108
Stream size : 286 MiB (94%)
Source stream size : 286 MiB (94%)
Language : English
Encoded date : UTC 2011-02-25 05:57:28
Tagged date : UTC 2011-02-25 05:57:28
Color range : Limited
Audio
ID : 2
Format : AAC
Format/Info : Advanced Audio Codec
Format profile : LC
Codec ID : mp4a-40-2
Duration : 13 min 20 s
Source duration : 13 min 20 s
Bit rate mode : Variable
Bit rate : 192 kb/s
Maximum bit rate : 311 kb/s
Channel(s) : 2 channels
Channel positions : Front: L R
Sampling rate : 48.0 kHz
Frame rate : 46.875 FPS (1024 SPF)
Compression mode : Lossy
Stream size : 18.1 MiB (6%)
Source stream size : 18.1 MiB (6%)
Language : English
Encoded date : UTC 2011-02-25 05:57:28
Tagged date : UTC 2011-02-25 05:57:28
General
Complete name : F:\CGMA - Dynamic Sketching 1 with Peter Han\Peter Han Week 7.mp4
Format : MPEG-4
Format profile : Base Media / Version 2
Codec ID : mp42 (M4V /mp42/isom)
File size : 97.2 MiB
Duration : 1 h 1 min
Overall bit rate : 220 kb/s
Encoded date : UTC 2011-02-21 01:37:17
Tagged date : UTC 2011-02-21 01:37:17
Video
ID : 1
Format : AVC
Format/Info : Advanced Video Codec
Format profile : High@L4
Format settings : CABAC / 4 Ref Frames
Format settings, CABAC : Yes
Format settings, RefFrames : 4 frames
Format settings, GOP : M=1, N=75
Codec ID : avc1
Codec ID/Info : Advanced Video Coding
Duration : 1 h 1 min
Source duration : 1 h 1 min
Bit rate : 165 kb/s
Width : 1 280 pixels
Height : 720 pixels
Display aspect ratio : 16:9
Frame rate mode : Constant
Frame rate : 15.000 FPS
Color space : YUV
Chroma subsampling : 4:2:0
Bit depth : 8 bits
Scan type : Progressive
Bits/(Pixel*Frame) : 0.012
Stream size : 72.7 MiB (75%)
Source stream size : 72.7 MiB (75%)
Language : English
Encoded date : UTC 2011-02-21 01:37:17
Tagged date : UTC 2011-02-21 01:37:17
Color range : Limited
Color primaries : BT.709
Transfer characteristics : BT.709
Matrix coefficients : BT.709
mdhd_Duration : 3698673
Audio
ID : 2
Format : AAC
Format/Info : Advanced Audio Codec
Format profile : LC
Codec ID : mp4a-40-2
Duration : 1 h 1 min
Source duration : 1 h 1 min
Bit rate mode : Constant
Bit rate : 53.6 kb/s
Channel(s) : 2 channels
Channel positions : Front: L R
Sampling rate : 44.1 kHz
Frame rate : 43.066 FPS (1024 SPF)
Compression mode : Lossy
Stream size : 23.6 MiB (24%)
Source stream size : 23.6 MiB (24%)
Language : English
Encoded date : UTC 2011-02-21 01:37:17
Tagged date : UTC 2011-02-21 01:37:17
mdhd_Duration : 3695807
General
Complete name : F:\CGMA - Dynamic Sketching 1 with Peter Han\Peter Han Week 8.mp4
Format : MPEG-4
Format profile : Base Media / Version 2
Codec ID : mp42 (mp42/mp41)
File size : 214 MiB
Duration : 25 min 17 s
Overall bit rate mode : Variable
Overall bit rate : 1 186 kb/s
Encoded date : UTC 2011-02-04 04:16:12
Tagged date : UTC 2011-02-04 04:16:12
TIM : 00;00;00;00
TSC : 30000
TSZ : 1001
Video
ID : 1
Format : AVC
Format/Info : Advanced Video Codec
Format profile : Main@L3.2
Format settings : CABAC / 3 Ref Frames
Format settings, CABAC : Yes
Format settings, RefFrames : 3 frames
Codec ID : avc1
Codec ID/Info : Advanced Video Coding
Duration : 25 min 17 s
Bit rate : 992 kb/s
Width : 1 280 pixels
Height : 720 pixels
Display aspect ratio : 16:9
Frame rate mode : Constant
Frame rate : 29.970 (29970/1000) FPS
Original frame rate : 29.970 (30000/1001) FPS
Standard : NTSC
Color space : YUV
Chroma subsampling : 4:2:0
Bit depth : 8 bits
Scan type : Progressive
Bits/(Pixel*Frame) : 0.036
Stream size : 179 MiB (84%)
Language : English
Encoded date : UTC 2011-02-04 04:16:12
Tagged date : UTC 2011-02-04 04:16:12
Color range : Limited
Audio
ID : 2
Format : AAC
Format/Info : Advanced Audio Codec
Format profile : LC
Codec ID : mp4a-40-2
Duration : 25 min 17 s
Source duration : 25 min 17 s
Bit rate mode : Variable
Bit rate : 192 kb/s
Maximum bit rate : 293 kb/s
Channel(s) : 2 channels
Channel positions : Front: L R
Sampling rate : 48.0 kHz
Frame rate : 46.875 FPS (1024 SPF)
Compression mode : Lossy
Stream size : 34.3 MiB (16%)
Source stream size : 34.3 MiB (16%)
Language : English
Encoded date : UTC 2011-02-04 04:16:12
Tagged date : UTC 2011-02-04 04:16:12
Скриншоты:

Дополнительные скриншоты:

Скачать .torrent

Для того, чтобы скачать торрент-файл

Питер Хан - Динамический эскиз / Peter Han - Dynamic Sketching [часть 1] (2014)

с нашего сайта, Вам необходимо Войти на сайт под своим логином! Если у Вас ещё нет логина, тогда Вам нужно сначала Зарегистрироваться!

Как скачивать? · Что такое торрент? · Рейтинг и ограничения

Показать сообщения:    
Ответить на тему

Питер Хан - Динамический эскиз / Peter Han - Dynamic Sketching [часть 1] (2014) скачать торрент (torrent), видеоуроки, тренинги, обучающее видео и видеокурсы

Текущее время: Сегодня 12:07

Часовой пояс: GMT + 4



Вы не можете начинать темы
Вы не можете отвечать на сообщения
Вы не можете редактировать свои сообщения
Вы не можете удалять свои сообщения
Вы не можете голосовать в опросах
Вы не можете прикреплять файлы к сообщениям
Вы не можете скачивать файлы