ITVDN - Django (2018)

Ответить на тему
 
Автор Сообщение

Yulya ®

ITVDN | Django (2018) PCRec [H.264/720p-LQ] - Автор (режиссер): ITVDN
Производство: Антон Мазун
Жанр: Программирование, Python, Django
Описание:
Курс Django состоит с 9 взаимосвязанных уроков. В курсе рассматриваются основные возможности фреймворка Django. После прохождении данного курса учащийся сможет писать веб-приложения на языке Python и фреймворка Django.
Продолжительность: 09:07:53
Качество видео: PCRec
Видео: AVC/H.264, 1280x720, ~226-372 Kbps
Аудио: AAC, 2 ch, 255-256 Kbps

Mediainfo:

Общее
Полное имя : .\01 Введение в Django\01 Введение в Django.mp4
Формат : MPEG-4
Профиль формата : Base Media / Version 2
Идентификатор кодека : mp42 (mp42/mp41/isom/avc1)
Размер файла : 114 Мбайт
Продолжительность : 32 м. 39 с.
Режим общего битрейта : Переменный
Общий поток : 486 Кбит/сек
Дата кодирования : UTC 2017-12-14 10:07:29
Дата пометки : UTC 2017-12-14 10:07:29
Видео
Идентификатор : 1
Формат : AVC
Формат/Информация : Advanced Video Codec
Профиль формата : High@L3.2
Настройки формата : CABAC / 5 Ref Frames
Параметр CABAC формата : Да
Параметр RefFrames формата : 5 кадров
Идентификатор кодека : avc1
Идентификатор кодека/Информация : Advanced Video Coding
Продолжительность : 32 м. 39 с.
Битрейт : 226 Кбит/сек
Ширина : 1280 пикселей
Высота : 720 пикселей
Соотношение сторон : 16:9
Режим частоты кадров : Постоянный
Частота кадров : 25,000 кадров/сек
Цветовое пространство : YUV
Субдискретизация насыщенности : 4:2:0
Битовая глубина : 8 бит
Тип развёртки : Прогрессивная
Бит/(Пиксели*Кадры) : 0.010
Размер потока : 52,8 Мбайт (46%)
Библиотека кодирования : x264 core 152 r10 ba24899
Настройки программы : cabac=1 / ref=5 / deblock=1:0:0 / analyse=0x3:0x113 / me=hex / subme=8 / psy=1 / psy_rd=1.00:0.00 / mixed_ref=1 / me_range=16 / chroma_me=1 / trellis=2 / 8x8dct=1 / cqm=0 / deadzone=21,11 / fast_pskip=1 / chroma_qp_offset=-2 / threads=22 / lookahead_threads=3 / sliced_threads=0 / nr=0 / decimate=1 / interlaced=0 / bluray_compat=0 / stitchable=1 / constrained_intra=0 / bframes=3 / b_pyramid=2 / b_adapt=2 / b_bias=0 / direct=3 / weightb=1 / open_gop=0 / weightp=2 / keyint=infinite / keyint_min=25 / scenecut=40 / intra_refresh=0 / rc_lookahead=50 / rc=crf / mbtree=1 / crf=20.0 / qcomp=0.60 / qpmin=5 / qpmax=69 / qpstep=4 / vbv_maxrate=2750 / vbv_bufsize=7500 / crf_max=0.0 / nal_hrd=none / filler=0 / ip_ratio=1.40 / aq=1:1.00
Дата кодирования : UTC 2017-12-14 10:07:29
Дата пометки : UTC 2017-12-14 10:07:29
Цветовой диапазон : Limited
Основные цвета : BT.709
Характеристики трансфера : BT.709
Коэффициенты матрицы : BT.709
Аудио
Идентификатор : 2
Формат : AAC
Формат/Информация : Advanced Audio Codec
Профиль формата : LC
Идентификатор кодека : mp4a-40-2
Продолжительность : 32 м. 39 с.
Вид битрейта : Переменный
Битрейт : 256 Кбит/сек
Каналы : 2 канала
Расположение каналов : Front: L R
Частота : 48,0 КГц
Частота кадров : 46,875 кадров/сек (1024 SPF)
Метод сжатия : С потерями
Размер потока : 59,8 Мбайт (53%)
Дата кодирования : UTC 2017-12-14 10:07:29
Дата пометки : UTC 2017-12-14 10:07:29

Дополнительная информация:

В раздаче имеются архивы! В них содержится дополнительные материалы.

Программа курса:

1 Введение в Django
2 Маршрутизация. Запросы и ответы сервера
3 Шаблоны и представления.
4 Модели.
5 Формы, валидация форм
6 Работа с базой данных
7 Регистрация, авторизация пользователей
8 Ajax
9 Безопасность
Скриншоты:
Скачать .torrent

Для того, чтобы скачать торрент-файл

ITVDN - Django (2018)

с нашего сайта, Вам необходимо Войти на сайт под своим логином! Если у Вас ещё нет логина, тогда Вам нужно сначала Зарегистрироваться!

Как скачивать? · Что такое торрент? · Рейтинг и ограничения

Показать сообщения:    
Ответить на тему

ITVDN - Django (2018) скачать торрент (torrent), видеоуроки, тренинги, обучающее видео и видеокурсы

Текущее время: Сегодня 14:27

Часовой пояс: GMT + 4



Вы не можете начинать темы
Вы не можете отвечать на сообщения
Вы не можете редактировать свои сообщения
Вы не можете удалять свои сообщения
Вы не можете голосовать в опросах
Вы не можете прикреплять файлы к сообщениям
Вы не можете скачивать файлы