ITVDN - Angular Advanced (2017)

Ответить на тему
 
Автор Сообщение

Yulya ®

ITVDN | Angular Advanced (2017) PCRec [H.264/720p-LQ] - Автор (режиссер): ITVDN
Производство: Дмитрий Охрименко
Жанр: Программирование, JavaScript, Angular
Описание:
Этот курс является логическим продолжением видео курса Angular Essential. В видео курсе Angular Advanced Вы узнаете, как создаются пользовательские директивы и фильтры, основы использования реактивных подходов в программировании и работы с Observable, а также узнаете, как работает отслеживание изменений в Angular проекте. Знания, которые Вы получите после прохождения данного курса, помогут лучше понимать принципы работы элементов одностраничного приложения, а также даст представление о том как можно повысить производительность приложения внеся минимум изменений в программный код.
Продолжительность: 05:09:29
Качество видео: PCRec
Видео: AVC/H.264, 1280x720, ~233-360 Kbps
Аудио: AAC, 2 ch, 255-256 Kbps

Mediainfo:

Общее
Полное имя : .\01 Пользовательские директивы и компоненты.mp4
Формат : MPEG-4
Профиль формата : Base Media / Version 2
Идентификатор кодека : mp42 (mp42/mp41/isom/avc1)
Размер файла : 225 Мбайт
Продолжительность : 1 ч. 3 м.
Режим общего битрейта : Переменный
Общий поток : 494 Кбит/сек
Дата кодирования : UTC 2017-12-19 13:44:20
Дата пометки : UTC 2017-12-19 13:44:20
Видео
Идентификатор : 1
Формат : AVC
Формат/Информация : Advanced Video Codec
Профиль формата : High@L3.2
Настройки формата : CABAC / 5 Ref Frames
Параметр CABAC формата : Да
Параметр RefFrames формата : 5 кадров
Идентификатор кодека : avc1
Идентификатор кодека/Информация : Advanced Video Coding
Продолжительность : 1 ч. 3 м.
Битрейт : 234 Кбит/сек
Ширина : 1280 пикселей
Высота : 720 пикселей
Соотношение сторон : 16:9
Режим частоты кадров : Постоянный
Частота кадров : 30,000 кадров/сек
Цветовое пространство : YUV
Субдискретизация насыщенности : 4:2:0
Битовая глубина : 8 бит
Тип развёртки : Прогрессивная
Бит/(Пиксели*Кадры) : 0.008
Размер потока : 106 Мбайт (47%)
Библиотека кодирования : x264 core 152 r10 ba24899
Настройки программы : cabac=1 / ref=5 / deblock=1:0:0 / analyse=0x3:0x113 / me=hex / subme=8 / psy=1 / psy_rd=1.00:0.00 / mixed_ref=1 / me_range=16 / chroma_me=1 / trellis=2 / 8x8dct=1 / cqm=0 / deadzone=21,11 / fast_pskip=1 / chroma_qp_offset=-2 / threads=22 / lookahead_threads=3 / sliced_threads=0 / nr=0 / decimate=1 / interlaced=0 / bluray_compat=0 / stitchable=1 / constrained_intra=0 / bframes=3 / b_pyramid=2 / b_adapt=2 / b_bias=0 / direct=3 / weightb=1 / open_gop=0 / weightp=2 / keyint=infinite / keyint_min=30 / scenecut=40 / intra_refresh=0 / rc_lookahead=50 / rc=crf / mbtree=1 / crf=20.0 / qcomp=0.60 / qpmin=5 / qpmax=69 / qpstep=4 / vbv_maxrate=2750 / vbv_bufsize=7500 / crf_max=0.0 / nal_hrd=none / filler=0 / ip_ratio=1.40 / aq=1:1.00
Дата кодирования : UTC 2017-12-19 13:44:20
Дата пометки : UTC 2017-12-19 13:44:20
Цветовой диапазон : Limited
Основные цвета : BT.709
Характеристики трансфера : BT.709
Коэффициенты матрицы : BT.709
Аудио
Идентификатор : 2
Формат : AAC
Формат/Информация : Advanced Audio Codec
Профиль формата : LC
Идентификатор кодека : mp4a-40-2
Продолжительность : 1 ч. 3 м.
Вид битрейта : Переменный
Битрейт : 256 Кбит/сек
Каналы : 2 канала
Расположение каналов : Front: L R
Частота : 48,0 КГц
Частота кадров : 46,875 кадров/сек (1024 SPF)
Метод сжатия : С потерями
Размер потока : 117 Мбайт (52%)
Дата кодирования : UTC 2017-12-19 13:44:20
Дата пометки : UTC 2017-12-19 13:44:20

Дополнительная информация:

В раздаче имеются архивы! В них содержится дополнительные материалы.

Программа курса:

1 Пользовательские директивы и компоненты
2 Формы. Часть 1
3 Формы. Часть 2
4 Реактивное программирование. RxJS
5 Отслеживание изменений
Скриншоты:
Скачать .torrent

Для того, чтобы скачать торрент-файл

ITVDN - Angular Advanced (2017)

с нашего сайта, Вам необходимо Войти на сайт под своим логином! Если у Вас ещё нет логина, тогда Вам нужно сначала Зарегистрироваться!

Как скачивать? · Что такое торрент? · Рейтинг и ограничения

Показать сообщения:    
Ответить на тему

ITVDN - Angular Advanced (2017) скачать торрент (torrent), видеоуроки, тренинги, обучающее видео и видеокурсы

Текущее время: Сегодня 06:24

Часовой пояс: GMT + 4



Вы не можете начинать темы
Вы не можете отвечать на сообщения
Вы не можете редактировать свои сообщения
Вы не можете удалять свои сообщения
Вы не можете голосовать в опросах
Вы не можете прикреплять файлы к сообщениям
Вы не можете скачивать файлы