Бред Хасси - Курс верстки PSD в HTML5/CSS3 (2014)

Ответить на тему
 
Автор Сообщение

Yulya ®

-Бред Хасси - Курс верстки PSD в HTML5/CSS3 (2014)- Автор (режиссер): Бред Хасси
Жанр: Обучающие видео-уроки
Язык: Русский
Продолжительность: 03:57:58
Качество видео: PCRec
Видеокодек: AVC
Битрейт видео: ~190 - 214 kb/s
Размер кадра: 1280x720
Аудиокодек: AAC
Битрейт аудио: 76 - 126 kb/s, 2 Ch
Доп. материалы: Есть
Описание:
Курс верстки PSD в HTML5/CSS3 — это простой курс в котором вы научитесь вручную переводить макет из Photoshop в прекрасный, семантически верный HTML5 и CSS3 веб-сайт.
Начните говорить на языке с самого начала. Точно так же как вы изучаете иностранный язык, лучший способ его выучить это говорить на нем с первого дня. Система обучения в данном курсе очень похожа на изучение иностранного языка, так что мы начнем говорить на HTML5 и CSS3 с самого начала.
Если вы всегда хотели узнать как создать свой собственный веб-сайт или вы хотели узнать простой, исчерпывающий способ как погрузиться в мир HTML5 и CSS3 этот курс определенно вам подойдет.

Программа курса:

Раздел 1: Введение
1. Welcome to PSD to HTML5 & CSS3
Раздел 2: Подготовка
2. What we are building
3. What you need to start
4. Setting up our Folder Structure
5. Code Chunks
Раздел 3: PSD
6. Becoming Familiar with the Layout
7. Gathering Assets & Saving for Web
8. Photoshop Pop Quiz!
Раздел 4: HTML
9. Coding an HTML5 Skeleton
10. Coding the "Header"
11. Coding the "Content Section"
12. Coding the "Footer"
13. HTML5 Pop Quiz!
Раздел 5: CSS
14. Adding a Stylesheet to your Website
15. Normalize vs. Reset: What is the difference?
16. Global Styles & Typography
17. Layout: Styling the Navigation Bar
18. Layout: Styling the Header
19. Layout: Styling the "Content Section" — Part I
20. Layout: Styling the "Content Section" — Part II
21. Layout: Styling the Footer
22. CSS3 Pop Quiz!
Раздел 6: Валидация
23. Validating your HTML5
24. Validating your CSS3
25. Validation Pop Quiz!
Раздел 7: Заключение
26. Review
Раздел 8: Бонус лекция
27. How to Buy Domain & Hosting for your Website

О преподавателе:

Высококвалифицированный профессионал, Бред Хасси является страстным и опытным веб-дизайнером, разработчиком, блоггером и цифровым бизнесменом. Бред родом из города Йеллоунайф, который находится у северной границы Канады. Чтобы получить хорошее образование, развить в себе необходимые навыки и стать одним из главных людей в решении проблем веба, создания дизайнерских решений и обсуждения проблем программирования он переехал из Йеллоунайфа на восточное побережье Канады в город Ванкувер.
Решительность Бреда и любовь с которой он занимается своим делом привела его в очень интересные места, где он встретился с отличными людьми. Для него было большей честью работать с ними, предоставлять им решения их проблем. Он работал с огромным количеством компаний. Это были как мелкие, так и крупные игроки по всей Америке.
Бред пишет веб-сайты на заказ. Он так же предоставляет дизайнерские решения для огромного количества клиентов своей компании Brightside Studios. Он постоянно пишет статьи на тему пассивного дохода и жизни на полную катушку. Он так же предоставляет высококачественные учебники и курсы по веб-дизайну для десятков тысяч отличных людей, которые желают овладеть данным ремеслом.
Присоединяйтесь к Бреду и приключению в мир веб-дизайна, веб разработки и обсуждения кода. Вы об этом не пожалеете!

MediaInfo:

Код:
Общее
Полное имя                               : C:\Бред Хасси - Курс верстки PSD в HTML5-CSS3 - 2014\Лекция 07 - Подготовка ресурсов и сохранение файлов для веба.mp4
Формат                                   : MPEG-4
Профиль формата                          : Base Media
Идентификатор кодека                     : isom
Размер файла                             : 57,3 Мбайт
Продолжительность                        : 20 м.
Режим общего битрейта                    : Переменный
Общий поток                              : 396 Кбит/сек
Дата кодирования                         : UTC 2014-09-08 22:42:23
Дата пометки                             : UTC 2014-09-08 22:42:23
Программа кодирования                    : My MP4Box GUI 0.6.0.6
Видео
Идентификатор                            : 1
Формат                                   : AVC
Формат/Информация                        : Advanced Video Codec
Профиль формата                          : [url=mailto:High@L3.1]High@L3.1[/url]
Параметр CABAC формата                   : Да
Параметр ReFrames формата                : 4 кадра
Идентификатор кодека                     : avc1
Идентификатор кодека/Информация          : Advanced Video Coding
Продолжительность                        : 20 м.
Битрейт                                  : 190 Кбит/сек
Максимальный битрейт                     : 2012 Кбит/сек
Ширина                                   : 1280 пикселей
Высота                                   : 720 пикселей
Соотношение сторон                       : 16:9
Режим частоты кадров                     : Постоянный
Частота кадров                           : 15,000 кадров/сек
Цветовое пространство                    : YUV
Субдискретизация насыщенности            : 4:2:0
Битовая глубина                          : 8 бит
Тип развёртки                            : Прогрессивная
Бит/(Пиксели*Кадры)                      : 0.014
Размер потока                            : 27,5 Мбайт (48%)
Заголовок                                : Lecture 7 - Gathering Assets & Saving for Web_track1.h264
Библиотека кодирования                   : x264 core 125 r2200 999b753
Настройки программы                      : cabac=1 / ref=3 / deblock=1:0:0 / analyse=0x3:0x113 / me=hex / subme=7 / psy=1 / psy_rd=1.00:0.00 / mixed_ref=1 / me_range=16 / chroma_me=1 / trellis=1 / 8x8dct=1 / cqm=0 / deadzone=21,11 / fast_pskip=1 / chroma_qp_offset=-2 / threads=6 / lookahead_threads=1 / sliced_threads=0 / nr=0 / decimate=1 / interlaced=0 / bluray_compat=0 / constrained_intra=0 / bframes=3 / b_pyramid=2 / b_adapt=1 / b_bias=0 / direct=3 / weightb=1 / open_gop=0 / weightp=2 / keyint=250 / keyint_min=15 / scenecut=40 / intra_refresh=0 / rc_lookahead=40 / rc=2pass / mbtree=1 / bitrate=190 / ratetol=1.0 / qcomp=0.60 / qpmin=0 / qpmax=69 / qpstep=4 / cplxblur=20.0 / qblur=0.5 / ip_ratio=1.40 / aq=1:1.00
Дата кодирования                         : UTC 2014-09-08 22:42:23
Дата пометки                             : UTC 2014-09-08 22:42:25
Аудио #1
Идентификатор                            : 2
Формат                                   : AAC
Формат/Информация                        : Advanced Audio Codec
Профиль формата                          : LC
Идентификатор кодека                     : 40
Продолжительность                        : 20 м.
Вид битрейта                             : Переменный
Битрейт                                  : 126 Кбит/сек
Максимальный битрейт                     : 157 Кбит/сек
Каналы                                   : 2 канала
Расположение каналов                     : Front: L R
Частота                                  : 44,1 КГц
Метод сжатия                             : С потерями
Размер потока                            : 18,2 Мбайт (32%)
Заголовок                                : Lecture 7 - Gathering Assets & Saving for Web(2).aac
Язык                                     : Russian
Дата кодирования                         : UTC 2014-09-08 22:42:23
Дата пометки                             : UTC 2014-09-08 22:42:25
Аудио #2
Идентификатор                            : 3
Формат                                   : AAC
Формат/Информация                        : Advanced Audio Codec
Профиль формата                          : LC
Идентификатор кодека                     : 40
Продолжительность                        : 20 м.
Вид битрейта                             : Переменный
Битрейт                                  : 76,0 Кбит/сек
Максимальный битрейт                     : 82,2 Кбит/сек
Каналы                                   : 2 канала
Расположение каналов                     : Front: L R
Частота                                  : 44,1 КГц
Метод сжатия                             : С потерями
Размер потока                            : 11,0 Мбайт (19%)
Заголовок                                : Lecture 7 - Gathering Assets & Saving for Web_track2.aac
Язык                                     : English
Дата кодирования                         : UTC 2014-09-08 22:42:24
Дата пометки                             : UTC 2014-09-08 22:42:25
Код:
Общее
Полное имя                               : C:\Бред Хасси - Курс верстки PSD в HTML5-CSS3 - 2014\Лекция 08 - Пишем скелета сайта на HTML5.mp4
Формат                                   : MPEG-4
Профиль формата                          : Base Media
Идентификатор кодека                     : isom
Размер файла                             : 41,6 Мбайт
Продолжительность                        : 13 м.
Режим общего битрейта                    : Переменный
Общий поток                              : 420 Кбит/сек
Дата кодирования                         : UTC 2014-09-10 13:26:32
Дата пометки                             : UTC 2014-09-10 13:26:32
Программа кодирования                    : My MP4Box GUI 0.6.0.6
Видео
Идентификатор                            : 1
Формат                                   : AVC
Формат/Информация                        : Advanced Video Codec
Профиль формата                          : [url=mailto:High@L3.1]High@L3.1[/url]
Параметр CABAC формата                   : Да
Параметр ReFrames формата                : 4 кадра
Идентификатор кодека                     : avc1
Идентификатор кодека/Информация          : Advanced Video Coding
Продолжительность                        : 13 м.
Битрейт                                  : 214 Кбит/сек
Номинальный битрейт                      : 190 Кбит/сек
Максимальный битрейт                     : 5018 Кбит/сек
Ширина                                   : 1280 пикселей
Высота                                   : 720 пикселей
Соотношение сторон                       : 16:9
Режим частоты кадров                     : Постоянный
Частота кадров                           : 15,000 кадров/сек
Цветовое пространство                    : YUV
Субдискретизация насыщенности            : 4:2:0
Битовая глубина                          : 8 бит
Тип развёртки                            : Прогрессивная
Бит/(Пиксели*Кадры)                      : 0.015
Размер потока                            : 21,2 Мбайт (51%)
Заголовок                                : Lecture 8 - Coding an HTML5 Skeleton_track1.h264
Библиотека кодирования                   : x264 core 125 r2200 999b753
Настройки программы                      : cabac=1 / ref=3 / deblock=1:0:0 / analyse=0x3:0x113 / me=hex / subme=7 / psy=1 / psy_rd=1.00:0.00 / mixed_ref=1 / me_range=16 / chroma_me=1 / trellis=1 / 8x8dct=1 / cqm=0 / deadzone=21,11 / fast_pskip=1 / chroma_qp_offset=-2 / threads=6 / lookahead_threads=1 / sliced_threads=0 / nr=0 / decimate=1 / interlaced=0 / bluray_compat=0 / constrained_intra=0 / bframes=3 / b_pyramid=2 / b_adapt=1 / b_bias=0 / direct=3 / weightb=1 / open_gop=0 / weightp=2 / keyint=250 / keyint_min=15 / scenecut=40 / intra_refresh=0 / rc_lookahead=40 / rc=2pass / mbtree=1 / bitrate=190 / ratetol=1.0 / qcomp=0.60 / qpmin=0 / qpmax=69 / qpstep=4 / cplxblur=20.0 / qblur=0.5 / ip_ratio=1.40 / aq=1:1.00
Дата кодирования                         : UTC 2014-09-10 13:26:32
Дата пометки                             : UTC 2014-09-10 13:26:34
Аудио #1
Идентификатор                            : 2
Формат                                   : AAC
Формат/Информация                        : Advanced Audio Codec
Профиль формата                          : LC
Идентификатор кодека                     : 40
Продолжительность                        : 13 м.
Вид битрейта                             : Переменный
Битрейт                                  : 126 Кбит/сек
Максимальный битрейт                     : 216 Кбит/сек
Каналы                                   : 2 канала
Расположение каналов                     : Front: L R
Частота                                  : 44,1 КГц
Метод сжатия                             : С потерями
Размер потока                            : 12,4 Мбайт (30%)
Заголовок                                : Lecture 8 - CODING AN HTML5 SKELETON.aac
Язык                                     : Russian
Дата кодирования                         : UTC 2014-09-10 13:26:33
Дата пометки                             : UTC 2014-09-10 13:26:34
Аудио #2
Идентификатор                            : 3
Формат                                   : AAC
Формат/Информация                        : Advanced Audio Codec
Профиль формата                          : LC
Идентификатор кодека                     : 40
Продолжительность                        : 13 м.
Вид битрейта                             : Переменный
Битрейт                                  : 76,0 Кбит/сек
Максимальный битрейт                     : 81,9 Кбит/сек
Каналы                                   : 2 канала
Расположение каналов                     : Front: L R
Частота                                  : 44,1 КГц
Метод сжатия                             : С потерями
Размер потока                            : 7,53 Мбайт (18%)
Заголовок                                : Lecture 8 - Coding an HTML5 Skeleton_track2.aac
Язык                                     : English
Дата кодирования                         : UTC 2014-09-10 13:26:33
Дата пометки                             : UTC 2014-09-10 13:26:34
Скриншоты:
Скачать .torrent

Для того, чтобы скачать торрент-файл

Бред Хасси - Курс верстки PSD в HTML5/CSS3 (2014)

с нашего сайта, Вам необходимо Войти на сайт под своим логином! Если у Вас ещё нет логина, тогда Вам нужно сначала Зарегистрироваться!

Как скачивать? · Что такое торрент? · Рейтинг и ограничения

Показать сообщения:    
Ответить на тему

Бред Хасси - Курс верстки PSD в HTML5/CSS3 (2014) скачать торрент (torrent), видеоуроки, тренинги, обучающее видео и видеокурсы

Текущее время: Сегодня 04:02

Часовой пояс: GMT + 4



Вы не можете начинать темы
Вы не можете отвечать на сообщения
Вы не можете редактировать свои сообщения
Вы не можете удалять свои сообщения
Вы не можете голосовать в опросах
Вы не можете прикреплять файлы к сообщениям
Вы не можете скачивать файлы