Laracasts - Extra Series (2013-2018)

Ответить на тему
 
Автор Сообщение

Yulya ®

Laracasts | Extra Series (2013-2018) PCRec [H.264] [EN]- Автор (режиссер): Laracasts
Жанр: Программирование, Laravel, PHP, Front-End, Tooling
Описание:
Сборка всех серий, что не вошли в категорию "навыки" (Skills).
Продолжительность: 72:15:52
Качество видео: PCRec
Язык озвучки: Английский
Видео: AVC/H.264, 1152x720-2304x1440, ~132-1749 Kbps
Аудио: AAC, 2 ch, 145-236 Kbps

Mediainfo:

Общее
Полное имя : .\[LARAVEL] [ARCHIVED] Billing With Stripe\03 - Stripe.js.mp4
Формат : MPEG-4
Профиль формата : Base Media / Version 2
Идентификатор кодека : mp42 (mp42/mp41/isom/avc1)
Размер файла : 47,9 Мбайт
Продолжительность : 14 м. 28 с.
Режим общего битрейта : Переменный
Общий поток : 463 Кбит/сек
Дата кодирования : UTC 2013-10-10 19:50:20
Дата пометки : UTC 2013-10-10 19:50:20
Видео
Идентификатор : 1
Формат : AVC
Формат/Информация : Advanced Video Codec
Профиль формата : High@L3.1
Настройки формата : CABAC / 4 Ref Frames
Параметр CABAC формата : Да
Параметр RefFrames формата : 4 кадра
Идентификатор кодека : avc1
Идентификатор кодека/Информация : Advanced Video Coding
Продолжительность : 14 м. 28 с.
Битрейт : 300 Кбит/сек
Ширина : 1152 пикселя
Высота : 720 пикселей
Соотношение сторон : 16:10
Режим частоты кадров : Постоянный
Частота кадров : 30,000 кадров/сек
Цветовое пространство : YUV
Субдискретизация насыщенности : 4:2:0
Битовая глубина : 8 бит
Тип развёртки : Прогрессивная
Бит/(Пиксели*Кадры) : 0.012
Размер потока : 31,1 Мбайт (65%)
Библиотека кодирования : x264 core 129 r2245 bc13772
Настройки программы : cabac=1 / ref=3 / deblock=1:0:0 / analyse=0x3:0x113 / me=hex / subme=7 / psy=1 / psy_rd=1.00:0.00 / mixed_ref=1 / me_range=16 / chroma_me=1 / trellis=1 / 8x8dct=1 / cqm=0 / deadzone=21,11 / fast_pskip=1 / chroma_qp_offset=-2 / threads=12 / lookahead_threads=2 / sliced_threads=0 / nr=0 / decimate=1 / interlaced=0 / bluray_compat=0 / constrained_intra=0 / bframes=3 / b_pyramid=2 / b_adapt=1 / b_bias=0 / direct=1 / weightb=1 / open_gop=0 / weightp=2 / keyint=90 / keyint_min=30 / scenecut=40 / intra_refresh=0 / rc_lookahead=40 / rc=2pass / mbtree=1 / bitrate=300 / ratetol=1.0 / qcomp=0.60 / qpmin=5 / qpmax=69 / qpstep=4 / cplxblur=20.0 / qblur=0.5 / vbv_maxrate=3750 / vbv_bufsize=12500 / nal_hrd=none / ip_ratio=1.40 / aq=1:1.00
Дата кодирования : UTC 2013-10-10 19:50:20
Дата пометки : UTC 2013-10-10 19:50:20
Аудио
Идентификатор : 2
Формат : AAC
Формат/Информация : Advanced Audio Codec
Профиль формата : LC
Идентификатор кодека : mp4a-40-2
Продолжительность : 14 м. 28 с.
Продолжительность оригинала : 14 м. 28 с.
Вид битрейта : Переменный
Битрейт : 158 Кбит/сек
Каналы : 2 канала
Расположение каналов : Front: L R
Частота : 44,1 КГц
Частота кадров : 43,066 кадра/сек (1024 SPF)
Метод сжатия : С потерями
Размер потока : 16,3 Мбайт (34%)
Размер потока оригинала : 16,3 Мбайт (34%)
Дата кодирования : UTC 2013-10-10 19:50:20
Дата пометки : UTC 2013-10-10 19:50:20
Общее
Полное имя : .\[PHP] How Do I\03-How-Do-I-Iterators.mp4
Формат : MPEG-4
Профиль формата : Base Media / Version 2
Идентификатор кодека : mp42 (mp42/mp41/isom/avc1)
Размер файла : 66,2 Мбайт
Продолжительность : 17 м. 7 с.
Режим общего битрейта : Переменный
Общий поток : 540 Кбит/сек
Дата кодирования : UTC 2016-07-16 00:14:31
Дата пометки : UTC 2016-07-16 00:14:31
Видео
Идентификатор : 1
Формат : AVC
Формат/Информация : Advanced Video Codec
Профиль формата : High@L4
Настройки формата : CABAC / 4 Ref Frames
Параметр CABAC формата : Да
Параметр RefFrames формата : 4 кадра
Идентификатор кодека : avc1
Идентификатор кодека/Информация : Advanced Video Coding
Продолжительность : 17 м. 7 с.
Битрейт : 300 Кбит/сек
Ширина : 1728 пикселей
Высота : 1080 пикселей
Соотношение сторон : 16:10
Режим частоты кадров : Постоянный
Частота кадров : 30,000 кадров/сек
Цветовое пространство : YUV
Субдискретизация насыщенности : 4:2:0
Битовая глубина : 8 бит
Тип развёртки : Прогрессивная
Бит/(Пиксели*Кадры) : 0.005
Размер потока : 36,8 Мбайт (56%)
Библиотека кодирования : x264 core 148 r11 3b70645
Настройки программы : cabac=1 / ref=4 / deblock=1:0:0 / analyse=0x3:0x113 / me=umh / subme=8 / psy=1 / psy_rd=1.00:0.00 / mixed_ref=1 / me_range=16 / chroma_me=1 / trellis=1 / 8x8dct=1 / cqm=0 / deadzone=21,11 / fast_pskip=1 / chroma_qp_offset=-2 / threads=34 / lookahead_threads=5 / sliced_threads=0 / nr=0 / decimate=1 / interlaced=0 / bluray_compat=0 / stitchable=1 / constrained_intra=0 / bframes=3 / b_pyramid=2 / b_adapt=2 / b_bias=0 / direct=3 / weightb=1 / open_gop=0 / weightp=2 / keyint=infinite / keyint_min=30 / scenecut=40 / intra_refresh=0 / rc_lookahead=50 / rc=2pass / mbtree=1 / bitrate=300 / ratetol=1.0 / qcomp=0.60 / qpmin=5 / qpmax=69 / qpstep=4 / cplxblur=20.0 / qblur=0.5 / vbv_maxrate=4950 / vbv_bufsize=13500 / nal_hrd=none / filler=0 / ip_ratio=1.40 / aq=1:1.00
Дата кодирования : UTC 2016-07-16 00:14:31
Дата пометки : UTC 2016-07-16 00:14:31
Цветовой диапазон : Limited
Основные цвета : BT.709
Характеристики трансфера : BT.709
Коэффициенты матрицы : BT.709
Аудио
Идентификатор : 2
Формат : AAC
Формат/Информация : Advanced Audio Codec
Профиль формата : LC
Идентификатор кодека : mp4a-40-2
Продолжительность : 17 м. 7 с.
Вид битрейта : Переменный
Битрейт : 235 Кбит/сек
Каналы : 2 канала
Расположение каналов : Front: L R
Частота : 48,0 КГц
Частота кадров : 46,875 кадров/сек (1024 SPF)
Метод сжатия : С потерями
Размер потока : 28,8 Мбайт (44%)
Дата кодирования : UTC 2016-07-16 00:14:31
Дата пометки : UTC 2016-07-16 00:14:31
Общее
Полное имя : .\[PHP] [DEV] PHP Bits\1-Visual-Debt.mp4
Формат : MPEG-4
Профиль формата : Base Media / Version 2
Идентификатор кодека : mp42 (mp42/mp41/isom/avc1)
Размер файла : 19,3 Мбайт
Продолжительность : 4 м. 56 с.
Режим общего битрейта : Переменный
Общий поток : 547 Кбит/сек
Дата кодирования : UTC 2017-06-01 14:03:00
Дата пометки : UTC 2017-06-01 14:03:00
Видео
Идентификатор : 1
Формат : AVC
Формат/Информация : Advanced Video Codec
Профиль формата : High@L4
Настройки формата : CABAC / 4 Ref Frames
Параметр CABAC формата : Да
Параметр RefFrames формата : 4 кадра
Параметр GOP формата : M=4, N=90
Идентификатор кодека : avc1
Идентификатор кодека/Информация : Advanced Video Coding
Продолжительность : 4 м. 56 с.
Битрейт : 313 Кбит/сек
Ширина : 1920 пикселей
Высота : 1080 пикселей
Соотношение сторон : 16:9
Режим частоты кадров : Постоянный
Частота кадров : 30,000 кадров/сек
Цветовое пространство : YUV
Субдискретизация насыщенности : 4:2:0
Битовая глубина : 8 бит
Тип развёртки : Прогрессивная
Бит/(Пиксели*Кадры) : 0.005
Размер потока : 10,8 Мбайт (56%)
Библиотека кодирования : x264 core 150 r10 df79067
Настройки программы : cabac=1 / ref=4 / deblock=1:0:0 / analyse=0x3:0x113 / me=hex / subme=8 / psy=1 / psy_rd=1.00:0.00 / mixed_ref=1 / me_range=16 / chroma_me=1 / trellis=2 / 8x8dct=1 / cqm=0 / deadzone=21,11 / fast_pskip=1 / chroma_qp_offset=-2 / threads=34 / lookahead_threads=5 / sliced_threads=0 / nr=0 / decimate=1 / interlaced=0 / bluray_compat=0 / stitchable=1 / constrained_intra=0 / bframes=3 / b_pyramid=2 / b_adapt=1 / b_bias=0 / direct=3 / weightb=1 / open_gop=0 / weightp=2 / keyint=infinite / keyint_min=30 / scenecut=40 / intra_refresh=0 / rc_lookahead=50 / rc=2pass / mbtree=1 / bitrate=313 / ratetol=1.0 / qcomp=0.60 / qpmin=5 / qpmax=69 / qpstep=4 / cplxblur=20.0 / qblur=0.5 / vbv_maxrate=4950 / vbv_bufsize=13500 / nal_hrd=none / filler=0 / ip_ratio=1.40 / aq=1:1.00
Дата кодирования : UTC 2017-06-01 14:03:00
Дата пометки : UTC 2017-06-01 14:03:00
Цветовой диапазон : Limited
Основные цвета : BT.709
Характеристики трансфера : BT.709
Коэффициенты матрицы : BT.709
Аудио
Идентификатор : 2
Формат : AAC
Формат/Информация : Advanced Audio Codec
Профиль формата : LC
Идентификатор кодека : mp4a-40-2
Продолжительность : 4 м. 56 с.
Вид битрейта : Переменный
Битрейт : 235 Кбит/сек
Каналы : 2 канала
Расположение каналов : Front: L R
Частота : 48,0 КГц
Частота кадров : 46,875 кадров/сек (1024 SPF)
Метод сжатия : С потерями
Размер потока : 8,32 Мбайт (43%)
Дата кодирования : UTC 2017-06-01 14:03:00
Дата пометки : UTC 2017-06-01 14:03:00
Общее
Полное имя : .\[LARAVEL] [ARCHIVED] Laravel 5 Fundamentals\15 - Easy Auth.mp4
Формат : MPEG-4
Профиль формата : Base Media / Version 2
Идентификатор кодека : mp42 (mp42/mp41/isom/avc1)
Размер файла : 97,6 Мбайт
Продолжительность : 16 м. 5 с.
Режим общего битрейта : Переменный
Общий поток : 848 Кбит/сек
Дата кодирования : UTC 2015-01-30 00:43:27
Дата пометки : UTC 2015-01-30 00:43:27
Видео
Идентификатор : 1
Формат : AVC
Формат/Информация : Advanced Video Codec
Профиль формата : High@L5.1
Настройки формата : CABAC / 4 Ref Frames
Параметр CABAC формата : Да
Параметр RefFrames формата : 4 кадра
Идентификатор кодека : avc1
Идентификатор кодека/Информация : Advanced Video Coding
Продолжительность : 16 м. 5 с.
Битрейт : 610 Кбит/сек
Ширина : 2304 пикселя
Высота : 1440 пикселей
Соотношение сторон : 16:10
Режим частоты кадров : Постоянный
Частота кадров : 15,000 кадров/сек
Цветовое пространство : YUV
Субдискретизация насыщенности : 4:2:0
Битовая глубина : 8 бит
Тип развёртки : Прогрессивная
Бит/(Пиксели*Кадры) : 0.012
Размер потока : 70,2 Мбайт (72%)
Библиотека кодирования : x264 core 142 r11 24e4fed
Настройки программы : cabac=1 / ref=3 / deblock=1:0:0 / analyse=0x3:0x113 / me=hex / subme=7 / psy=1 / psy_rd=1.00:0.00 / mixed_ref=1 / me_range=16 / chroma_me=1 / trellis=1 / 8x8dct=1 / cqm=0 / deadzone=21,11 / fast_pskip=1 / chroma_qp_offset=-2 / threads=48 / lookahead_threads=8 / sliced_threads=0 / nr=0 / decimate=1 / interlaced=0 / bluray_compat=0 / stitchable=1 / constrained_intra=0 / bframes=3 / b_pyramid=2 / b_adapt=1 / b_bias=0 / direct=1 / weightb=1 / open_gop=0 / weightp=2 / keyint=infinite / keyint_min=15 / scenecut=40 / intra_refresh=0 / rc_lookahead=40 / rc=crf / mbtree=1 / crf=20.0 / qcomp=0.60 / qpmin=5 / qpmax=69 / qpstep=4 / vbv_maxrate=13200 / vbv_bufsize=36000 / crf_max=0.0 / nal_hrd=none / filler=0 / ip_ratio=1.40 / aq=1:1.00
Дата кодирования : UTC 2015-01-30 00:43:27
Дата пометки : UTC 2015-01-30 00:43:27
Цветовой диапазон : Limited
Основные цвета : BT.709
Характеристики трансфера : BT.709
Коэффициенты матрицы : BT.709
Аудио
Идентификатор : 2
Формат : AAC
Формат/Информация : Advanced Audio Codec
Профиль формата : LC
Идентификатор кодека : mp4a-40-2
Продолжительность : 16 м. 5 с.
Вид битрейта : Переменный
Битрейт : 235 Кбит/сек
Каналы : 2 канала
Расположение каналов : Front: L R
Частота : 48,0 КГц
Частота кадров : 46,875 кадров/сек (1024 SPF)
Метод сжатия : С потерями
Размер потока : 27,1 Мбайт (28%)
Дата кодирования : UTC 2015-01-30 00:43:27
Дата пометки : UTC 2015-01-30 00:43:27

Дополнительная информация:

В раздаче имеются архивы! В них содержится исходники.

Содержание:

[Front-End] HTML5 Video and VideoJS
[Front-End] Learn Flexbox Through Examples
[Front-End] Modern CSS Workflow
[Front-End] [ARCHIVED] Laravel and the Front-end
[Front-End] [ARCHIVED] Painless Builds With Elixir
[Front-End] [ARCHIVED] The Vast World of Vue.js 0.12
[Front-End] [DEV] Learn Laravel Mix
[LARAVEL] Build Your First App
[LARAVEL] Hands On- Community Contributions
[LARAVEL] Laravel 4 From Scratch
[LARAVEL] Laravel 5.2 From Scratch
[LARAVEL] Russian-Doll Caching in Laravel
[LARAVEL] What's New in Laravel 5.5
[LARAVEL] [ARCHIVED] Billing With Stripe
[LARAVEL] [ARCHIVED] Build 'ProjectFlyer' With Me
[LARAVEL] [ARCHIVED] Build Larabook From Scratch
[LARAVEL] [ARCHIVED] Digging In
[LARAVEL] [ARCHIVED] Laravel 5 Alpha From Scratch
[LARAVEL] [ARCHIVED] Laravel 5 Fundamentals
[LARAVEL] [ARCHIVED] What's New in Laravel 5.0 (Alpha)
[LARAVEL] [DEV] Get Real With Laravel Echo
[PHP] How Do I
[PHP] How to Accept Payments
[PHP] What's New in PHP 7.1
[PHP] Whatcha Working On
[PHP] [ARCHIVED] Commands and Domain Events
[PHP] [ARCHIVED] Search as a Service
[PHP] [DEV] PHP Bits
[TOOLING] CSS Grids for Everyone
[TOOLING] Learn Redis Through Examples
[TOOLING] [DEV] How to Manage an Open Source Project
Скриншоты:
Скачать .torrent

Для того, чтобы скачать торрент-файл

Laracasts - Extra Series (2013-2018)

с нашего сайта, Вам необходимо Войти на сайт под своим логином! Если у Вас ещё нет логина, тогда Вам нужно сначала Зарегистрироваться!

Как скачивать? · Что такое торрент? · Рейтинг и ограничения

Показать сообщения:    
Ответить на тему

Laracasts - Extra Series (2013-2018) скачать торрент (torrent), видеоуроки, тренинги, обучающее видео и видеокурсы

Текущее время: Сегодня 07:12

Часовой пояс: GMT + 4



Вы не можете начинать темы
Вы не можете отвечать на сообщения
Вы не можете редактировать свои сообщения
Вы не можете удалять свои сообщения
Вы не можете голосовать в опросах
Вы не можете прикреплять файлы к сообщениям
Вы не можете скачивать файлы