Unity3DSchool - Основы языка C# в unity3D для написания скриптов (2017)

Ответить на тему
 
Автор Сообщение

Yulya ®

Unity3DSchool | Основы языка C# в unity3D для написания скриптов (2017) PCRec [H.264/1080p-LQ] - Автор (режиссер): Unity3DSchool
Жанр: Программирование, Unity3D, C#
Описание:
В этом курсе собрано 5 видеоуроков, которые содержат в себе самые важные и основные моменты написания скриптов в Unity3D на языке C#. Пройдя этот курс, вы узнаете о том, что такое переменные, методы, условные конструкции, циклы, массивы и многое другое. В 5-м уроке данного видеокурса вы с преподавателем создадите несложную игру, которая поможет закрепить весь пройденный материал. Также данный курс дополнен полезной информацией, личными советами преподавателя и ссылками на учебные материалы.
Продолжительность: 05:37:04
Качество видео: PCRec
Видео: AVC/H.264, 1920x1080, ~174-347 Kbps
Аудио: AAC, 2 ch, 253 Kbps

Mediainfo:

Общее
Полное имя : .\Lessons\lesson1.mp4
Формат : MPEG-4
Профиль формата : Base Media / Version 2
Идентификатор кодека : mp42 (isom/mp42)
Размер файла : 225 Мбайт
Продолжительность : 1 ч. 13 м.
Режим общего битрейта : Переменный
Общий поток : 430 Кбит/сек
Дата кодирования : UTC 2017-05-09 20:40:04
Дата пометки : UTC 2017-05-09 20:40:04
Видео
Идентификатор : 1
Формат : AVC
Формат/Информация : Advanced Video Codec
Профиль формата : Main@L4
Настройки формата : CABAC / 3 Ref Frames
Параметр CABAC формата : Да
Параметр RefFrames формата : 3 кадра
Параметр GOP формата : M=1, N=90
Идентификатор кодека : avc1
Идентификатор кодека/Информация : Advanced Video Coding
Продолжительность : 1 ч. 13 м.
Битрейт : 174 Кбит/сек
Ширина : 1920 пикселей
Высота : 1080 пикселей
Соотношение сторон : 16:9
Режим частоты кадров : Постоянный
Частота кадров : 18,000 кадров/сек
Цветовое пространство : YUV
Субдискретизация насыщенности : 4:2:0
Битовая глубина : 8 бит
Тип развёртки : Прогрессивная
Бит/(Пиксели*Кадры) : 0.005
Размер потока : 91,3 Мбайт (41%)
Язык : English
Дата кодирования : UTC 2017-05-09 20:40:05
Дата пометки : UTC 2017-05-09 20:40:05
Цветовой диапазон : Limited
Аудио
Идентификатор : 2
Формат : AAC
Формат/Информация : Advanced Audio Codec
Профиль формата : LC
Идентификатор кодека : mp4a-40-2
Продолжительность : 1 ч. 13 м.
Вид битрейта : Переменный
Битрейт : 254 Кбит/сек
Максимальный битрейт : 351 Кбит/сек
Каналы : 2 канала
Расположение каналов : Front: L R
Частота : 44,1 КГц
Частота кадров : 43,066 кадра/сек (1024 SPF)
Метод сжатия : С потерями
Размер потока : 133 Мбайт (59%)
Язык : English
Дата кодирования : UTC 2017-05-09 20:40:05
Дата пометки : UTC 2017-05-09 20:40:05

Дополнительная информация:

В раздаче имеются архивы! В них содержится исходники проектов.

Темы уроков:

Урок 1: Установка, настройка и первый скрипт
Установка редактора Unity и его настройка
Настройка сцены для дальнейшего обучения
Разбор объектов и компонентов в Unity и их взаимодействие
Создание первого скрипта
Переменные типы данных
Методы в скрипте поумолчанию
Работа с переменными
Вывод данных в консоль
Урок 2: Методы и условные конструкции
Создание переменных и их сортировка для инспектора
Создание методов
Условные конструкции
Урок 3: GameObject & Components
Работа с компонентами/UI/объектами через скрипт
Подключение библиотеки
IEnumerator
Урок 4: Массивы и циклы
Массивы
Циклические конструкции
Триггеры
Работа с клавиатурой/мышкой/тачскрином
Луч (Physics.Raycast и Ray)
Урок 5: Закрепление материала
Rigidbody
Закрепление материала на примере создания несложной игры
Скриншоты:
Скачать .torrent

Для того, чтобы скачать торрент-файл

Unity3DSchool - Основы языка C# в unity3D для написания скриптов (2017)

с нашего сайта, Вам необходимо Войти на сайт под своим логином! Если у Вас ещё нет логина, тогда Вам нужно сначала Зарегистрироваться!

Как скачивать? · Что такое торрент? · Рейтинг и ограничения

Показать сообщения:    
Ответить на тему

Unity3DSchool - Основы языка C# в unity3D для написания скриптов (2017) скачать торрент (torrent), видеоуроки, тренинги, обучающее видео и видеокурсы

Текущее время: Сегодня 12:10

Часовой пояс: GMT + 4



Вы не можете начинать темы
Вы не можете отвечать на сообщения
Вы не можете редактировать свои сообщения
Вы не можете удалять свои сообщения
Вы не можете голосовать в опросах
Вы не можете прикреплять файлы к сообщениям
Вы не можете скачивать файлы