Geekbrains - Node.js Серверное программирование на JavaScript (2018)

Ответить на тему
 
Автор Сообщение

Yulya ®

Geekbrains | Node.js Серверное программирование на JavaScript (2018) PCRec [H.264/720p-LQ] - Автор (режиссер): Geekbrains
Жанр: Программирование, Javascript, Node.js
Описание:
Этот курс создан для тех, кто уже хорошо знает и использует JavaScript на клиенте и хочет научиться программировать на JavaScript на стороне сервера.
Продолжительность: 15:47:55
Качество видео: PCRec
Видео: AVC/H.264, 1280x720, ~271-380 Kbps
Аудио: AAC, 2 ch, 64 Kbps

Mediainfo:

Общее
Полное имя : .\1. Знакомство с Node.js\Урок 1. Знакомство с Node.mp4
Формат : MPEG-4
Профиль формата : Base Media
Идентификатор кодека : isom (isom/iso2/avc1/mp41)
Размер файла : 307 Мбайт
Продолжительность : 2 ч. 6 м.
Общий поток : 341 Кбит/сек
Программа кодирования : Lavf56.25.101
Видео
Идентификатор : 1
Формат : AVC
Формат/Информация : Advanced Video Codec
Профиль формата : High@L3.1
Настройки формата : CABAC / 4 Ref Frames
Параметр CABAC формата : Да
Параметр RefFrames формата : 4 кадра
Идентификатор кодека : avc1
Идентификатор кодека/Информация : Advanced Video Coding
Продолжительность : 2 ч. 6 м.
Битрейт : 271 Кбит/сек
Номинальный битрейт : 640 Кбит/сек
Ширина : 1280 пикселей
Высота : 720 пикселей
Соотношение сторон : 16:9
Режим частоты кадров : Переменный
Частота кадров : 20,000 кадров/сек
Минимальная частота кадров : 8,621 кадров/сек
Максимальная частота кадров : 20,000 кадров/сек
Цветовое пространство : YUV
Субдискретизация насыщенности : 4:2:0
Битовая глубина : 8 бит
Тип развёртки : Прогрессивная
Бит/(Пиксели*Кадры) : 0.015
Размер потока : 244 Мбайт (80%)
Библиотека кодирования : x264 core 146
Настройки программы : cabac=1 / ref=1 / deblock=1:0:0 / analyse=0x3:0x113 / me=hex / subme=2 / psy=1 / psy_rd=1.00:0.00 / mixed_ref=0 / me_range=16 / chroma_me=1 / trellis=0 / 8x8dct=1 / cqm=0 / deadzone=21,11 / fast_pskip=1 / chroma_qp_offset=0 / threads=4 / lookahead_threads=1 / sliced_threads=0 / nr=0 / decimate=1 / interlaced=0 / bluray_compat=0 / constrained_intra=0 / bframes=3 / b_pyramid=2 / b_adapt=1 / b_bias=0 / direct=1 / weightb=1 / open_gop=0 / weightp=1 / keyint=80 / keyint_min=8 / scenecut=40 / intra_refresh=0 / rc_lookahead=10 / rc=cbr / mbtree=1 / bitrate=640 / ratetol=1.0 / qcomp=0.60 / qpmin=0 / qpmax=69 / qpstep=4 / vbv_maxrate=640 / vbv_bufsize=512 / nal_hrd=none / filler=0 / ip_ratio=1.40 / aq=1:1.00
Аудио
Идентификатор : 2
Формат : AAC
Формат/Информация : Advanced Audio Codec
Профиль формата : LC
Идентификатор кодека : mp4a-40-2
Продолжительность : 2 ч. 6 м.
Вид битрейта : Постоянный
Битрейт : 64,0 Кбит/сек
Каналы : 2 канала
Расположение каналов : Front: L R
Частота : 44,1 КГц
Частота кадров : 43,066 кадра/сек (1024 SPF)
Метод сжатия : С потерями
Размер потока : 57,7 Мбайт (19%)
Default : Да
AlternateGroup/String : 1

Дополнительная информация:

В раздаче имеются архивы! В них содержится исходники проектов.

Программа курса:

Урок 1. Знакомство с Node.js
Знакомство с Node.js; сильные и слабые стороны Node.js; установка Node.js с помощью nvm; менеджер процессов pm2; пример: "Hello, world!".
Урок 2. Консольные программы
Стандартные библиотеки и функции Node.js,; консольные программы на Node.js, пример: "Hello, {name}!"; обработка аргументов при запуске; работа с переменными окружения; пример: "Hello, {env}!"; менеджер пакетов npm; полезные библиотеки: Sugar, Underscore, Async.
Урок 3. Работа с сетевыми запросами
Принципы обработки входящих веб-запросов; исходящие запросы с помощью request; пример: программа-переводчик (с помощью Google Translate).
Урок 4. Фреймворк Express
Знакомство с фреймворком Express.js; знакомство с шаблонизатором Handlebars; пример: программа-переводчик v2 с интерфейсом на HTML+CSS.
Урок 5. Работа с MySQL
Работа с MySQL с помощью Node-MySQL; создание и использование модулей; пример: создание TODO-приложения (основа - ввод и отображение пунктов).
Урок 6. Аутентификация и авторизация
Продолжение разработки TODO-приложения: редактирование и удаление пунктов, работа с cookies и сессиями, авторизация с помощью Passport.js.
Урок 7. REST API
Создание и использование кроссдоменных API с помощью REST API + CORS; создание REST API с помощью restify; пример: импорт/экспорт TODO-листа в формате JSON; использование REST API с помощью restify; пример: поиск индекса через Google Maps.
Урок 8. WebSockets
Работа с WebSockets через socket.io; пример: простейшая чат-комната; профессиональный хостинг для Node.js; как настроить VDS; как использовать PAAS; полезные сайты и инструменты.
Скриншоты:
Скачать .torrent

Для того, чтобы скачать торрент-файл

Geekbrains - Node.js Серверное программирование на JavaScript (2018)

с нашего сайта, Вам необходимо Войти на сайт под своим логином! Если у Вас ещё нет логина, тогда Вам нужно сначала Зарегистрироваться!

Как скачивать? · Что такое торрент? · Рейтинг и ограничения

Показать сообщения:    
Ответить на тему

Geekbrains - Node.js Серверное программирование на JavaScript (2018) скачать торрент (torrent), видеоуроки, тренинги, обучающее видео и видеокурсы

Текущее время: Сегодня 12:10

Часовой пояс: GMT + 4



Вы не можете начинать темы
Вы не можете отвечать на сообщения
Вы не можете редактировать свои сообщения
Вы не можете удалять свои сообщения
Вы не можете голосовать в опросах
Вы не можете прикреплять файлы к сообщениям
Вы не можете скачивать файлы