Анатолий Бирюков - Русский массаж (1994)

Ответить на тему
 
Автор Сообщение

Yulya ®

Анатолий Бирюков | Русский массаж (1994) DVD5 - Автор (режиссер): Анатолий Бирюков
Производство: Инфоконт
Жанр: Массаж
Описание:
Бирюков Анатолий Андреевич (1930 г.) - выпускник Государственного центрального ордена Ленина института физической культуры. Специалист в области спортивного и лечебного массажа. Ученик И.М. Саркизова-Серазини.
Доктор педагогических наук, профессор кафедры лечебной физической культуры, массажа и реабилитации Российского государственного университета физической культуры, спорта и туризма, мастер спорта СССР, заслуженный работник Высшей Школы РФ, заслуженный работник физической культуры РФ, Гранд доктор философии Всемирного информационно-распределённого университета.
Анатолий Андреевич Бирюков является создателем классификации видов, методов и форм массажа, автором 50 книг и более 400 научных и научно-методических работ, в том числе уникального международного учебника по массажу. Учебники и монографии Анатолия Андреевича Бирюкова изданы в Испании, Корее, Болгарии, Мексике, Польше, Кубе, Японии и многих других странах мира.
Продолжительность: 02:08:44
Качество видео: DVD5
Видео: MPEG-2, 720x576, ~4564 Kbps
Аудио: MP2, 2 ch, 192 Kbps

Mediainfo:

Общее
Полное имя : I:\Разное\Здоровье\Массаж РГУФК\Бирюков А. - Русский массаж (1994)\VTS_01_1.VOB
Формат : MPEG-PS
Размер файла : 935 Мбайт
Продолжительность : 26 м. 56 с.
Режим общего битрейта : Переменный
Общий поток : 4852 Кбит/сек
Видео
Идентификатор : 224 (0xE0)
Формат : MPEG Video
Версия формата : Version 2
Профиль формата : Main@Main
Настройки формата : BVOP
Параметр BVOP формата : Да
Параметр матрицы формата : По умолчанию
Параметр GOP формата : M=3, N=13
Структура изображения : Frame
Продолжительность : 26 м. 56 с.
Вид битрейта : Переменный
Битрейт : 4564 Кбит/сек
Максимальный битрейт : 9610 Кбит/сек
Ширина : 720 пикселей
Высота : 576 пикселей
Соотношение сторон : 16:9
Частота кадров : 25,000 кадров/сек
Стандарт вещания : PAL
Цветовое пространство : YUV
Субдискретизация насыщенности : 4:2:0
Битовая глубина : 8 бит
Тип развёртки : Чересстрочная
Порядок развёртки : Верхнее поле первое
Метод сжатия : С потерями
Бит/(Пиксели*Кадры) : 0.440
Временной код первого кадра : 00:00:00:00
Оригинал временного кода : Group of pictures header
GOP, открыто/закрыто : Закрыто
Размер потока : 880 Мбайт (94%)
Основные цвета : BT.601 PAL
Характеристики трансфера : BT.470 System B, BT.470 System G
Коэффициенты матрицы : BT.470 System B, BT.470 System G
Аудио
Идентификатор : 192 (0xC0)
Формат : MPEG Audio
Версия формата : Version 1
Профиль формата : Layer 2
Настройки формата : Joint stereo / Intensity Stereo + MS Stereo
Продолжительность : 26 м. 56 с.
Вид битрейта : Постоянный
Битрейт : 192 Кбит/сек
Каналы : 2 канала
Частота : 48,0 КГц
Частота кадров : 41,667 кадра/сек (1152 SPF)
Метод сжатия : С потерями
Задержка видео : 94 мс.
Размер потока : 37,0 Мбайт (4%)
Меню
Общее
Полное имя : I:\Разное\Здоровье\Массаж РГУФК\Бирюков А. - Русский массаж (1994)\VTS_02_1.VOB
Формат : MPEG-PS
Размер файла : 675 Мбайт
Продолжительность : 19 м. 22 с.
Режим общего битрейта : Переменный
Общий поток : 4871 Кбит/сек
Видео
Идентификатор : 224 (0xE0)
Формат : MPEG Video
Версия формата : Version 2
Профиль формата : Main@Main
Настройки формата : BVOP
Параметр BVOP формата : Да
Параметр матрицы формата : По умолчанию
Параметр GOP формата : M=3, N=13
Структура изображения : Frame
Продолжительность : 19 м. 22 с.
Вид битрейта : Переменный
Битрейт : 4582 Кбит/сек
Максимальный битрейт : 9610 Кбит/сек
Ширина : 720 пикселей
Высота : 576 пикселей
Соотношение сторон : 16:9
Частота кадров : 25,000 кадров/сек
Стандарт вещания : PAL
Цветовое пространство : YUV
Субдискретизация насыщенности : 4:2:0
Битовая глубина : 8 бит
Тип развёртки : Чересстрочная
Порядок развёртки : Верхнее поле первое
Метод сжатия : С потерями
Бит/(Пиксели*Кадры) : 0.442
Временной код первого кадра : 00:00:00:00
Оригинал временного кода : Group of pictures header
GOP, открыто/закрыто : Закрыто
Размер потока : 635 Мбайт (94%)
Основные цвета : BT.601 PAL
Характеристики трансфера : BT.470 System B, BT.470 System G
Коэффициенты матрицы : BT.470 System B, BT.470 System G
Аудио
Идентификатор : 192 (0xC0)
Формат : MPEG Audio
Версия формата : Version 1
Профиль формата : Layer 2
Настройки формата : Joint stereo / Intensity Stereo + MS Stereo
Продолжительность : 19 м. 22 с.
Вид битрейта : Постоянный
Битрейт : 192 Кбит/сек
Каналы : 2 канала
Частота : 48,0 КГц
Частота кадров : 41,667 кадра/сек (1152 SPF)
Метод сжатия : С потерями
Задержка видео : 95 мс.
Размер потока : 26,6 Мбайт (4%)
Меню
Общее
Полное имя : I:\Разное\Здоровье\Массаж РГУФК\Бирюков А. - Русский массаж (1994)\VTS_03_1.VOB
Формат : MPEG-PS
Размер файла : 1024 Мбайт
Продолжительность : 29 м. 30 с.
Режим общего битрейта : Переменный
Общий поток : 4853 Кбит/сек
Видео
Идентификатор : 224 (0xE0)
Формат : MPEG Video
Версия формата : Version 2
Профиль формата : Main@Main
Настройки формата : BVOP
Параметр BVOP формата : Да
Параметр матрицы формата : По умолчанию
Параметр GOP формата : M=3, N=13
Структура изображения : Frame
Продолжительность : 29 м. 30 с.
Вид битрейта : Переменный
Битрейт : 4564 Кбит/сек
Максимальный битрейт : 9610 Кбит/сек
Ширина : 720 пикселей
Высота : 576 пикселей
Соотношение сторон : 16:9
Частота кадров : 25,000 кадров/сек
Стандарт вещания : PAL
Цветовое пространство : YUV
Субдискретизация насыщенности : 4:2:0
Битовая глубина : 8 бит
Тип развёртки : Чересстрочная
Порядок развёртки : Верхнее поле первое
Метод сжатия : С потерями
Бит/(Пиксели*Кадры) : 0.440
Временной код первого кадра : 00:00:00:00
Оригинал временного кода : Group of pictures header
GOP, открыто/закрыто : Закрыто
Размер потока : 963 Мбайт (94%)
Основные цвета : BT.601 PAL
Характеристики трансфера : BT.470 System B, BT.470 System G
Коэффициенты матрицы : BT.470 System B, BT.470 System G
Аудио
Идентификатор : 192 (0xC0)
Формат : MPEG Audio
Версия формата : Version 1
Профиль формата : Layer 2
Настройки формата : Joint stereo / Intensity Stereo + MS Stereo
Продолжительность : 29 м. 29 с.
Вид битрейта : Постоянный
Битрейт : 192 Кбит/сек
Каналы : 2 канала
Частота : 48,0 КГц
Частота кадров : 41,667 кадра/сек (1152 SPF)
Метод сжатия : С потерями
Задержка видео : 94 мс.
Размер потока : 40,5 Мбайт (4%)
Меню
Общее
Полное имя : I:\Разное\Здоровье\Массаж РГУФК\Бирюков А. - Русский массаж (1994)\VTS_03_2.VOB
Формат : MPEG-PS
Размер файла : 217 Мбайт
Продолжительность : 6 м. 14 с.
Режим общего битрейта : Переменный
Общий поток : 4847 Кбит/сек
Видео
Идентификатор : 224 (0xE0)
Формат : MPEG Video
Версия формата : Version 2
Профиль формата : Main@Main
Настройки формата : BVOP
Параметр BVOP формата : Да
Параметр матрицы формата : По умолчанию
Параметр GOP формата : M=3, N=13
Структура изображения : Frame
Продолжительность : 6 м. 14 с.
Вид битрейта : Переменный
Битрейт : 4559 Кбит/сек
Максимальный битрейт : 9610 Кбит/сек
Ширина : 720 пикселей
Высота : 576 пикселей
Соотношение сторон : 16:9
Частота кадров : 25,000 кадров/сек
Стандарт вещания : PAL
Цветовое пространство : YUV
Субдискретизация насыщенности : 4:2:0
Битовая глубина : 8 бит
Тип развёртки : Чересстрочная
Порядок развёртки : Верхнее поле первое
Метод сжатия : С потерями
Бит/(Пиксели*Кадры) : 0.440
Временной код первого кадра : 00:29:30:05
Оригинал временного кода : Group of pictures header
GOP, открыто/закрыто : Закрыто
Размер потока : 204 Мбайт (94%)
Основные цвета : BT.601 PAL
Характеристики трансфера : BT.470 System B, BT.470 System G
Коэффициенты матрицы : BT.470 System B, BT.470 System G
Аудио
Идентификатор : 192 (0xC0)
Формат : MPEG Audio
Версия формата : Version 1
Профиль формата : Layer 2
Настройки формата : Joint stereo / Intensity Stereo + MS Stereo
Продолжительность : 6 м. 14 с.
Вид битрейта : Постоянный
Битрейт : 192 Кбит/сек
Каналы : 2 канала
Частота : 48,0 КГц
Частота кадров : 41,667 кадра/сек (1152 SPF)
Метод сжатия : С потерями
Задержка видео : -226 мс.
Размер потока : 8,58 Мбайт (4%)
Меню
Общее
Полное имя : I:\Разное\Здоровье\Массаж РГУФК\Бирюков А. - Русский массаж (1994)\VTS_04_1.VOB
Формат : MPEG-PS
Размер файла : 988 Мбайт
Продолжительность : 28 м. 23 с.
Режим общего битрейта : Переменный
Общий поток : 4867 Кбит/сек
Видео
Идентификатор : 224 (0xE0)
Формат : MPEG Video
Версия формата : Version 2
Профиль формата : Main@Main
Настройки формата : BVOP
Параметр BVOP формата : Да
Параметр матрицы формата : По умолчанию
Параметр GOP формата : M=3, N=13
Структура изображения : Frame
Продолжительность : 28 м. 23 с.
Вид битрейта : Переменный
Битрейт : 4579 Кбит/сек
Максимальный битрейт : 9610 Кбит/сек
Ширина : 720 пикселей
Высота : 576 пикселей
Соотношение сторон : 16:9
Частота кадров : 25,000 кадров/сек
Стандарт вещания : PAL
Цветовое пространство : YUV
Субдискретизация насыщенности : 4:2:0
Битовая глубина : 8 бит
Тип развёртки : Чересстрочная
Порядок развёртки : Верхнее поле первое
Метод сжатия : С потерями
Бит/(Пиксели*Кадры) : 0.442
Временной код первого кадра : 00:00:00:00
Оригинал временного кода : Group of pictures header
GOP, открыто/закрыто : Закрыто
Размер потока : 930 Мбайт (94%)
Основные цвета : BT.601 PAL
Характеристики трансфера : BT.470 System B, BT.470 System G
Коэффициенты матрицы : BT.470 System B, BT.470 System G
Аудио
Идентификатор : 192 (0xC0)
Формат : MPEG Audio
Версия формата : Version 1
Профиль формата : Layer 2
Настройки формата : Joint stereo / Intensity Stereo + MS Stereo
Продолжительность : 28 м. 23 с.
Вид битрейта : Постоянный
Битрейт : 192 Кбит/сек
Каналы : 2 канала
Частота : 48,0 КГц
Частота кадров : 41,667 кадра/сек (1152 SPF)
Метод сжатия : С потерями
Задержка видео : 94 мс.
Размер потока : 39,0 Мбайт (4%)
Меню
Общее
Полное имя : I:\Разное\Здоровье\Массаж РГУФК\Бирюков А. - Русский массаж (1994)\VTS_05_1.VOB
Формат : MPEG-PS
Размер файла : 625 Мбайт
Продолжительность : 18 м. 15 с.
Режим общего битрейта : Переменный
Общий поток : 4781 Кбит/сек
Видео
Идентификатор : 224 (0xE0)
Формат : MPEG Video
Версия формата : Version 2
Профиль формата : Main@Main
Настройки формата : BVOP
Параметр BVOP формата : Да
Параметр матрицы формата : По умолчанию
Параметр GOP формата : M=3, N=13
Структура изображения : Frame
Продолжительность : 18 м. 15 с.
Вид битрейта : Переменный
Битрейт : 4494 Кбит/сек
Максимальный битрейт : 9610 Кбит/сек
Ширина : 720 пикселей
Высота : 576 пикселей
Соотношение сторон : 16:9
Частота кадров : 25,000 кадров/сек
Стандарт вещания : PAL
Цветовое пространство : YUV
Субдискретизация насыщенности : 4:2:0
Битовая глубина : 8 бит
Тип развёртки : Чересстрочная
Порядок развёртки : Верхнее поле первое
Метод сжатия : С потерями
Бит/(Пиксели*Кадры) : 0.433
Временной код первого кадра : 00:00:00:00
Оригинал временного кода : Group of pictures header
GOP, открыто/закрыто : Закрыто
Размер потока : 587 Мбайт (94%)
Основные цвета : BT.601 PAL
Характеристики трансфера : BT.470 System B, BT.470 System G
Коэффициенты матрицы : BT.470 System B, BT.470 System G
Аудио
Идентификатор : 192 (0xC0)
Формат : MPEG Audio
Версия формата : Version 1
Профиль формата : Layer 2
Настройки формата : Joint stereo / Intensity Stereo + MS Stereo
Продолжительность : 18 м. 15 с.
Вид битрейта : Постоянный
Битрейт : 192 Кбит/сек
Каналы : 2 канала
Частота : 48,0 КГц
Частота кадров : 41,667 кадра/сек (1152 SPF)
Метод сжатия : С потерями
Задержка видео : 94 мс.
Размер потока : 25,1 Мбайт (4%)
Меню
Скриншоты:
Скачать .torrent

Для того, чтобы скачать торрент-файл

Анатолий Бирюков - Русский массаж (1994)

с нашего сайта, Вам необходимо Войти на сайт под своим логином! Если у Вас ещё нет логина, тогда Вам нужно сначала Зарегистрироваться!

Как скачивать? · Что такое торрент? · Рейтинг и ограничения

Показать сообщения:    
Ответить на тему

Анатолий Бирюков - Русский массаж (1994) скачать торрент (torrent), видеоуроки, тренинги, обучающее видео и видеокурсы

Текущее время: Сегодня 05:04

Часовой пояс: GMT + 4



Вы не можете начинать темы
Вы не можете отвечать на сообщения
Вы не можете редактировать свои сообщения
Вы не можете удалять свои сообщения
Вы не можете голосовать в опросах
Вы не можете прикреплять файлы к сообщениям
Вы не можете скачивать файлы