Lynda.com - Up and Running in VUE (2015)

Ответить на тему
 
Автор Сообщение

Yulya ®

Lynda.com | Up and Running in VUE (2015) PCRec [H.264/720p-LQ] [RU] - Автор (режиссер): Aaron F. Ross
Производство: Lynda.com
Жанр: 3D графика, моделирование ландшафтов
Описание:
Начинаем работать в программе VUE 2015.
Создание убедительных изображений окружающей природы, благодаря VUE – это больше не проблема. Данная программа использовалась для моделирования и визуализации фото-реалистичных декораций к такому фильму, как Аватар.
VUE – это автономная программа, которая может работать с основными 3D приложениями с помощью дополнительных плагинов. В этом курсе вы увидите, каким простым может быть процесс построения фото-реалистичного изображения природы.
Автор курса демонстрирует каждый из этапов создания ландшафта, в одно мгновение добавляя реалистичное освещение и атмосферу, тысячи или даже миллионы естественных объектов, таких как деревья, скалы и растения, целые экосистемы.
С мощными инструментами VUE и инструкциями Аарона у вас будет всё для того, чтобы начать создавать ландшафты, океаны, атмосферные явления, природные комплексы и другие реалистические цифровые миры.
Продолжительность: 04:13:24
Качество видео: PCRec
Перевод: Дублированный, Karaway
Язык озвучки: Русский
Субтитры: Английские (отдельным файлом, формат "srt")
Видео: AVC/H.264, 1280x720, ~103-643 Kbps
Аудио: AAC, 1 ch, 128 Kbps - Русский, дублированный (Karaway)

Mediainfo:

General
Complete name : 00_02. Using the Exercise Files.mp4
Format : MPEG-4
Format profile : Base Media
Codec ID : isom
File size : 3.99 MiB
Duration : 2mn 22s
Overall bit rate mode : Variable
Overall bit rate : 235 Kbps
Video
ID : 1
Format : AVC
Format/Info : Advanced Video Codec
Format profile : Main@L3.1
Format settings, CABAC : Yes
Format settings, ReFrames : 5 frames
Codec ID : avc1
Codec ID/Info : Advanced Video Coding
Duration : 2mn 22s
Bit rate mode : Variable
Bit rate : 103 Kbps
Maximum bit rate : 1 000 Kbps
Width : 1 280 pixels
Height : 720 pixels
Display aspect ratio : 16:9
Frame rate mode : Constant
Frame rate : 15.000 fps
Color space : YUV
Chroma subsampling : 4:2:0
Bit depth : 8 bits
Scan type : Progressive
Bits/(Pixel*Frame) : 0.007
Stream size : 1.75 MiB (44%)
Writing library : x264 core 129
Language : English
Audio
ID : 2
Format : AAC
Format/Info : Advanced Audio Codec
Format profile : LC
Codec ID : 40
Duration : 2mn 22s
Duration_LastFrame : 30ms
Bit rate mode : Constant
Bit rate : 128 Kbps
Channel(s) : 2 channels
Channel(s)_Original : 1 channel
Channel positions : Front: C
Sampling rate : 44.1 KHz
Compression mode : Lossy
Stream size : 2.17 MiB (54%)
Language : Russian

Дополнительная информация:

Некоторые темы курса:
- установка VUE
- структура интерфейса
- управление объектами
- добавление солнечного света и облаков
- построение рельефа
- постепенное изменение рельефа
- редактирование материалов
- добавление воды, скал и растений
- рендеринг окружающей среды.
Файлы упражнений прилагаются к курсу.
Дополнительная информация на офсайте.
Скриншоты:

Дополнительные скриншоты:

Скачать .torrent

Для того, чтобы скачать торрент-файл

Lynda.com - Up and Running in VUE (2015)

с нашего сайта, Вам необходимо Войти на сайт под своим логином! Если у Вас ещё нет логина, тогда Вам нужно сначала Зарегистрироваться!

Как скачивать? · Что такое торрент? · Рейтинг и ограничения

Показать сообщения:    
Ответить на тему

Lynda.com - Up and Running in VUE (2015) скачать торрент (torrent), видеоуроки, тренинги, обучающее видео и видеокурсы

Текущее время: Сегодня 23:25

Часовой пояс: GMT + 4



Вы не можете начинать темы
Вы не можете отвечать на сообщения
Вы не можете редактировать свои сообщения
Вы не можете удалять свои сообщения
Вы не можете голосовать в опросах
Вы не можете прикреплять файлы к сообщениям
Вы не можете скачивать файлы