Алексей Ларченко - Видеоуроки по Movavi Video Suite (2018)

Ответить на тему
 
Автор Сообщение

Yulya ®

Алексей Ларченко | Видеоуроки по Movavi Video Suite (2018) PCRec [H.264/720p-LQ] - Автор (режиссер): Алексей Ларченко
Производство: Алексей Ларченко
Жанр: Видеоуроки
Описание:
Видеоуроки по пакету любительских программ Movavi Video Suite.
Продолжительность: 01:00:13
Качество видео: PCRec
Видео: AVC/H.264, 1280х720, ~4 000 kb/s
Аудио: AAC, 2 ch, 128 kb/s

Mediainfo:

General
Complete name : E:\Видеоуроки по Movavi Video Suite\Аудиодорожки в Movavi Video Suite.mp4
Format : MPEG-4
Format profile : Base Media / Version 2
Codec ID : mp42 (mp42/isom)
File size : 85.1 MiB
Duration : 2 min 53 s
Overall bit rate mode : Constant
Overall bit rate : 4 123 kb/s
Encoded date : UTC 2018-02-04 04:21:30
Tagged date : UTC 2018-02-04 04:21:30
Video
ID : 2
Format : AVC
Format/Info : Advanced Video Codec
Format profile : Main@L3.1
Format settings : CABAC / 5 Ref Frames
Format settings, CABAC : Yes
Format settings, RefFrames : 5 frames
Format settings, GOP : M=3, N=24
Codec ID : avc1
Codec ID/Info : Advanced Video Coding
Duration : 2 min 53 s
Bit rate mode : Constant
Bit rate : 4 000 kb/s
Width : 1 280 pixels
Height : 720 pixels
Display aspect ratio : 16:9
Frame rate mode : Constant
Frame rate : 29.970 (30000/1001) FPS
Standard : NTSC
Color space : YUV
Chroma subsampling : 4:2:0
Bit depth : 8 bits
Scan type : Progressive
Bits/(Pixel*Frame) : 0.145
Stream size : 82.3 MiB (97%)
Language : English
Encoded date : UTC 2018-02-04 04:21:30
Tagged date : UTC 2018-02-04 04:21:30
Color range : Limited
Audio
ID : 1
Format : AAC
Format/Info : Advanced Audio Codec
Format profile : LC
Codec ID : mp4a-40-2
Duration : 2 min 53 s
Bit rate mode : Constant
Bit rate : 128 kb/s
Channel(s) : 2 channels
Channel positions : Front: L R
Sampling rate : 44.1 kHz
Frame rate : 43.066 FPS (1024 SPF)
Compression mode : Lossy
Stream size : 2.64 MiB (3%)
Language : English
Encoded date : UTC 2018-02-04 04:21:30
Tagged date : UTC 2018-02-04 04:21:30
General
Complete name : E:\Видеоуроки по Movavi Video Suite\Как в конце видео сделать утихание в Movavi Video Suite 17.mp4
Format : MPEG-4
Format profile : Base Media / Version 2
Codec ID : mp42 (mp42/isom)
File size : 92.1 MiB
Duration : 3 min 7 s
Overall bit rate mode : Constant
Overall bit rate : 4 131 kb/s
Encoded date : UTC 2018-01-14 02:46:32
Tagged date : UTC 2018-01-14 02:46:32
Video
ID : 2
Format : AVC
Format/Info : Advanced Video Codec
Format profile : Main@L3.1
Format settings : CABAC / 5 Ref Frames
Format settings, CABAC : Yes
Format settings, RefFrames : 5 frames
Format settings, GOP : M=3, N=24
Codec ID : avc1
Codec ID/Info : Advanced Video Coding
Duration : 3 min 7 s
Bit rate mode : Constant
Bit rate : 4 000 kb/s
Width : 1 280 pixels
Height : 720 pixels
Display aspect ratio : 16:9
Frame rate mode : Constant
Frame rate : 29.970 (30000/1001) FPS
Standard : NTSC
Color space : YUV
Chroma subsampling : 4:2:0
Bit depth : 8 bits
Scan type : Progressive
Bits/(Pixel*Frame) : 0.145
Stream size : 89.2 MiB (97%)
Language : English
Encoded date : UTC 2018-01-14 02:46:32
Tagged date : UTC 2018-01-14 02:46:32
Color range : Limited
Audio
ID : 1
Format : AAC
Format/Info : Advanced Audio Codec
Format profile : LC
Codec ID : mp4a-40-2
Duration : 3 min 6 s
Bit rate mode : Constant
Bit rate : 128 kb/s
Channel(s) : 2 channels
Channel positions : Front: L R
Sampling rate : 44.1 kHz
Frame rate : 43.066 FPS (1024 SPF)
Compression mode : Lossy
Stream size : 2.85 MiB (3%)
Language : English
Encoded date : UTC 2018-01-14 02:46:32
Tagged date : UTC 2018-01-14 02:46:32
General
Complete name : E:\Видеоуроки по Movavi Video Suite\Как вставить фон при монтаже в Movavi Video Suite.mp4
Format : MPEG-4
Format profile : Base Media / Version 2
Codec ID : mp42 (mp42/isom)
File size : 82.7 MiB
Duration : 2 min 48 s
Overall bit rate mode : Constant
Overall bit rate : 4 129 kb/s
Encoded date : UTC 2018-01-09 09:36:17
Tagged date : UTC 2018-01-09 09:36:17
Video
ID : 2
Format : AVC
Format/Info : Advanced Video Codec
Format profile : Main@L3.1
Format settings : CABAC / 5 Ref Frames
Format settings, CABAC : Yes
Format settings, RefFrames : 5 frames
Format settings, GOP : M=3, N=24
Codec ID : avc1
Codec ID/Info : Advanced Video Coding
Duration : 2 min 48 s
Bit rate mode : Constant
Bit rate : 4 000 kb/s
Width : 1 280 pixels
Height : 720 pixels
Display aspect ratio : 16:9
Frame rate mode : Constant
Frame rate : 29.970 (30000/1001) FPS
Standard : NTSC
Color space : YUV
Chroma subsampling : 4:2:0
Bit depth : 8 bits
Scan type : Progressive
Bits/(Pixel*Frame) : 0.145
Stream size : 80.1 MiB (97%)
Language : English
Encoded date : UTC 2018-01-09 09:36:17
Tagged date : UTC 2018-01-09 09:36:17
Color range : Limited
Audio
ID : 1
Format : AAC
Format/Info : Advanced Audio Codec
Format profile : LC
Codec ID : mp4a-40-2
Duration : 2 min 47 s
Bit rate mode : Constant
Bit rate : 128 kb/s
Channel(s) : 2 channels
Channel positions : Front: L R
Sampling rate : 44.1 kHz
Frame rate : 43.066 FPS (1024 SPF)
Compression mode : Lossy
Stream size : 2.56 MiB (3%)
Language : English
Encoded date : UTC 2018-01-09 09:36:17
Tagged date : UTC 2018-01-09 09:36:17
General
Complete name : E:\Видеоуроки по Movavi Video Suite\Как изменить голос в Movavi Video Suite.mp4
Format : MPEG-4
Format profile : Base Media / Version 2
Codec ID : mp42 (mp42/isom)
File size : 53.6 MiB
Duration : 1 min 49 s
Overall bit rate mode : Constant
Overall bit rate : 4 126 kb/s
Encoded date : UTC 2018-02-01 09:38:22
Tagged date : UTC 2018-02-01 09:38:22
Video
ID : 2
Format : AVC
Format/Info : Advanced Video Codec
Format profile : Main@L3.1
Format settings : CABAC / 5 Ref Frames
Format settings, CABAC : Yes
Format settings, RefFrames : 5 frames
Format settings, GOP : M=3, N=24
Codec ID : avc1
Codec ID/Info : Advanced Video Coding
Duration : 1 min 49 s
Bit rate mode : Constant
Bit rate : 4 000 kb/s
Width : 1 280 pixels
Height : 720 pixels
Display aspect ratio : 16:9
Frame rate mode : Constant
Frame rate : 29.970 (30000/1001) FPS
Standard : NTSC
Color space : YUV
Chroma subsampling : 4:2:0
Bit depth : 8 bits
Scan type : Progressive
Bits/(Pixel*Frame) : 0.145
Stream size : 51.9 MiB (97%)
Language : English
Encoded date : UTC 2018-02-01 09:38:22
Tagged date : UTC 2018-02-01 09:38:22
Color range : Limited
Audio
ID : 1
Format : AAC
Format/Info : Advanced Audio Codec
Format profile : LC
Codec ID : mp4a-40-2
Duration : 1 min 49 s
Bit rate mode : Constant
Bit rate : 128 kb/s
Channel(s) : 2 channels
Channel positions : Front: L R
Sampling rate : 44.1 kHz
Frame rate : 43.066 FPS (1024 SPF)
Compression mode : Lossy
Stream size : 1.66 MiB (3%)
Language : English
Encoded date : UTC 2018-02-01 09:38:22
Tagged date : UTC 2018-02-01 09:38:22
General
Complete name : E:\Видеоуроки по Movavi Video Suite\Как изменить скорость видео в Movavi Video Suite 17.mp4
Format : MPEG-4
Format profile : Base Media / Version 2
Codec ID : mp42 (mp42/isom)
File size : 65.6 MiB
Duration : 2 min 13 s
Overall bit rate mode : Constant
Overall bit rate : 4 137 kb/s
Encoded date : UTC 2018-02-21 00:56:59
Tagged date : UTC 2018-02-21 00:56:59
Video
ID : 2
Format : AVC
Format/Info : Advanced Video Codec
Format profile : Main@L3.1
Format settings : CABAC / 5 Ref Frames
Format settings, CABAC : Yes
Format settings, RefFrames : 5 frames
Format settings, GOP : M=3, N=24
Codec ID : avc1
Codec ID/Info : Advanced Video Coding
Duration : 2 min 13 s
Bit rate mode : Constant
Bit rate : 4 000 kb/s
Width : 1 280 pixels
Height : 720 pixels
Display aspect ratio : 16:9
Frame rate mode : Constant
Frame rate : 29.970 (30000/1001) FPS
Standard : NTSC
Color space : YUV
Chroma subsampling : 4:2:0
Bit depth : 8 bits
Scan type : Progressive
Bits/(Pixel*Frame) : 0.145
Stream size : 63.5 MiB (97%)
Language : English
Encoded date : UTC 2018-02-21 00:56:59
Tagged date : UTC 2018-02-21 00:56:59
Color range : Limited
Audio
ID : 1
Format : AAC
Format/Info : Advanced Audio Codec
Format profile : LC
Codec ID : mp4a-40-2
Duration : 2 min 13 s
Bit rate mode : Constant
Bit rate : 128 kb/s
Channel(s) : 2 channels
Channel positions : Front: L R
Sampling rate : 44.1 kHz
Frame rate : 43.066 FPS (1024 SPF)
Compression mode : Lossy
Stream size : 2.03 MiB (3%)
Language : English
Encoded date : UTC 2018-02-21 00:56:59
Tagged date : UTC 2018-02-21 00:56:59
General
Complete name : E:\Видеоуроки по Movavi Video Suite\Как накладывать видео одно на другое в Movavi Video Suite.mp4
Format : MPEG-4
Format profile : Base Media / Version 2
Codec ID : mp42 (mp42/isom)
File size : 79.2 MiB
Duration : 2 min 41 s
Overall bit rate mode : Constant
Overall bit rate : 4 123 kb/s
Encoded date : UTC 2018-02-09 09:34:18
Tagged date : UTC 2018-02-09 09:34:18
Video
ID : 2
Format : AVC
Format/Info : Advanced Video Codec
Format profile : Main@L3.1
Format settings : CABAC / 5 Ref Frames
Format settings, CABAC : Yes
Format settings, RefFrames : 5 frames
Format settings, GOP : M=3, N=24
Codec ID : avc1
Codec ID/Info : Advanced Video Coding
Duration : 2 min 41 s
Bit rate mode : Constant
Bit rate : 4 000 kb/s
Width : 1 280 pixels
Height : 720 pixels
Display aspect ratio : 16:9
Frame rate mode : Constant
Frame rate : 29.970 (30000/1001) FPS
Standard : NTSC
Color space : YUV
Chroma subsampling : 4:2:0
Bit depth : 8 bits
Scan type : Progressive
Bits/(Pixel*Frame) : 0.145
Stream size : 76.6 MiB (97%)
Language : English
Encoded date : UTC 2018-02-09 09:34:18
Tagged date : UTC 2018-02-09 09:34:18
Color range : Limited
Audio
ID : 1
Format : AAC
Format/Info : Advanced Audio Codec
Format profile : LC
Codec ID : mp4a-40-2
Duration : 2 min 41 s
Bit rate mode : Constant
Bit rate : 128 kb/s
Channel(s) : 2 channels
Channel positions : Front: L R
Sampling rate : 44.1 kHz
Frame rate : 43.066 FPS (1024 SPF)
Compression mode : Lossy
Stream size : 2.46 MiB (3%)
Language : English
Encoded date : UTC 2018-02-09 09:34:18
Tagged date : UTC 2018-02-09 09:34:18
General
Complete name : E:\Видеоуроки по Movavi Video Suite\Как перевернуть видео в Movavi Video Suite 17.mp4
Format : MPEG-4
Format profile : Base Media / Version 2
Codec ID : mp42 (mp42/isom)
File size : 55.2 MiB
Duration : 1 min 52 s
Overall bit rate mode : Constant
Overall bit rate : 4 135 kb/s
Encoded date : UTC 2018-02-22 00:07:11
Tagged date : UTC 2018-02-22 00:07:11
Video
ID : 2
Format : AVC
Format/Info : Advanced Video Codec
Format profile : Main@L3.1
Format settings : CABAC / 5 Ref Frames
Format settings, CABAC : Yes
Format settings, RefFrames : 5 frames
Format settings, GOP : M=3, N=24
Codec ID : avc1
Codec ID/Info : Advanced Video Coding
Duration : 1 min 52 s
Bit rate mode : Constant
Bit rate : 4 000 kb/s
Width : 1 280 pixels
Height : 720 pixels
Display aspect ratio : 16:9
Frame rate mode : Constant
Frame rate : 29.970 (30000/1001) FPS
Standard : NTSC
Color space : YUV
Chroma subsampling : 4:2:0
Bit depth : 8 bits
Scan type : Progressive
Bits/(Pixel*Frame) : 0.145
Stream size : 53.5 MiB (97%)
Language : English
Encoded date : UTC 2018-02-22 00:07:11
Tagged date : UTC 2018-02-22 00:07:11
Color range : Limited
Audio
ID : 1
Format : AAC
Format/Info : Advanced Audio Codec
Format profile : LC
Codec ID : mp4a-40-2
Duration : 1 min 52 s
Bit rate mode : Constant
Bit rate : 128 kb/s
Channel(s) : 2 channels
Channel positions : Front: L R
Sampling rate : 44.1 kHz
Frame rate : 43.066 FPS (1024 SPF)
Compression mode : Lossy
Stream size : 1.71 MiB (3%)
Language : English
Encoded date : UTC 2018-02-22 00:07:11
Tagged date : UTC 2018-02-22 00:07:11
General
Complete name : E:\Видеоуроки по Movavi Video Suite\Как работать с альфа-каналом в Movavi Video Suite 17.mp4
Format : MPEG-4
Format profile : Base Media / Version 2
Codec ID : mp42 (mp42/isom)
File size : 135 MiB
Duration : 4 min 34 s
Overall bit rate mode : Constant
Overall bit rate : 4 128 kb/s
Encoded date : UTC 2018-02-20 00:40:22
Tagged date : UTC 2018-02-20 00:40:22
Video
ID : 2
Format : AVC
Format/Info : Advanced Video Codec
Format profile : Main@L3.1
Format settings : CABAC / 5 Ref Frames
Format settings, CABAC : Yes
Format settings, RefFrames : 5 frames
Format settings, GOP : M=3, N=24
Codec ID : avc1
Codec ID/Info : Advanced Video Coding
Duration : 4 min 34 s
Bit rate mode : Constant
Bit rate : 4 000 kb/s
Width : 1 280 pixels
Height : 720 pixels
Display aspect ratio : 16:9
Frame rate mode : Constant
Frame rate : 29.970 (30000/1001) FPS
Standard : NTSC
Color space : YUV
Chroma subsampling : 4:2:0
Bit depth : 8 bits
Scan type : Progressive
Bits/(Pixel*Frame) : 0.145
Stream size : 131 MiB (97%)
Language : English
Encoded date : UTC 2018-02-20 00:40:22
Tagged date : UTC 2018-02-20 00:40:22
Color range : Limited
Audio
ID : 1
Format : AAC
Format/Info : Advanced Audio Codec
Format profile : LC
Codec ID : mp4a-40-2
Duration : 4 min 34 s
Bit rate mode : Constant
Bit rate : 128 kb/s
Channel(s) : 2 channels
Channel positions : Front: L R
Sampling rate : 44.1 kHz
Frame rate : 43.066 FPS (1024 SPF)
Compression mode : Lossy
Stream size : 4.18 MiB (3%)
Language : English
Encoded date : UTC 2018-02-20 00:40:22
Tagged date : UTC 2018-02-20 00:40:22
General
Complete name : E:\Видеоуроки по Movavi Video Suite\Как работать с хромакеем в Movavi Video Suite 17.mp4
Format : MPEG-4
Format profile : Base Media / Version 2
Codec ID : mp42 (mp42/isom)
File size : 79.2 MiB
Duration : 2 min 41 s
Overall bit rate mode : Constant
Overall bit rate : 4 123 kb/s
Encoded date : UTC 2018-02-19 02:02:50
Tagged date : UTC 2018-02-19 02:02:50
Video
ID : 2
Format : AVC
Format/Info : Advanced Video Codec
Format profile : Main@L3.1
Format settings : CABAC / 5 Ref Frames
Format settings, CABAC : Yes
Format settings, RefFrames : 5 frames
Format settings, GOP : M=3, N=24
Codec ID : avc1
Codec ID/Info : Advanced Video Coding
Duration : 2 min 41 s
Bit rate mode : Constant
Bit rate : 4 000 kb/s
Width : 1 280 pixels
Height : 720 pixels
Display aspect ratio : 16:9
Frame rate mode : Constant
Frame rate : 29.970 (30000/1001) FPS
Standard : NTSC
Color space : YUV
Chroma subsampling : 4:2:0
Bit depth : 8 bits
Scan type : Progressive
Bits/(Pixel*Frame) : 0.145
Stream size : 76.6 MiB (97%)
Language : English
Encoded date : UTC 2018-02-19 02:02:50
Tagged date : UTC 2018-02-19 02:02:50
Color range : Limited
Audio
ID : 1
Format : AAC
Format/Info : Advanced Audio Codec
Format profile : LC
Codec ID : mp4a-40-2
Duration : 2 min 41 s
Bit rate mode : Constant
Bit rate : 128 kb/s
Channel(s) : 2 channels
Channel positions : Front: L R
Sampling rate : 44.1 kHz
Frame rate : 43.066 FPS (1024 SPF)
Compression mode : Lossy
Stream size : 2.46 MiB (3%)
Language : English
Encoded date : UTC 2018-02-19 02:02:50
Tagged date : UTC 2018-02-19 02:02:50
General
Complete name : E:\Видеоуроки по Movavi Video Suite\Как работать со звуком в Movavi Video Suite.mp4
Format : MPEG-4
Format profile : Base Media / Version 2
Codec ID : mp42 (mp42/mp41)
File size : 24.6 MiB
Duration : 1 min 44 s
Overall bit rate mode : Variable
Overall bit rate : 1 981 kb/s
Encoded date : UTC 2018-01-28 04:21:43
Tagged date : UTC 2018-01-28 04:21:43
Video
ID : 1
Format : AVC
Format/Info : Advanced Video Codec
Format profile : Main@L3.2
Format settings : CABAC / 4 Ref Frames
Format settings, CABAC : Yes
Format settings, RefFrames : 4 frames
Codec ID : avc1
Codec ID/Info : Advanced Video Coding
Duration : 1 min 44 s
Bit rate mode : Variable
Bit rate : 1 785 kb/s
Maximum bit rate : 10 000 kb/s
Width : 1 280 pixels
Height : 720 pixels
Display aspect ratio : 16:9
Frame rate mode : Constant
Frame rate : 30.000 FPS
Standard : NTSC
Color space : YUV
Chroma subsampling : 4:2:0
Bit depth : 8 bits
Scan type : Progressive
Bits/(Pixel*Frame) : 0.065
Stream size : 22.1 MiB (90%)
Language : English
Encoded date : UTC 2018-01-28 04:21:43
Tagged date : UTC 2018-01-28 04:21:43
Color range : Limited
Audio
ID : 2
Format : AAC
Format/Info : Advanced Audio Codec
Format profile : LC
Codec ID : mp4a-40-2
Duration : 1 min 44 s
Source duration : 1 min 44 s
Bit rate mode : Variable
Bit rate : 192 kb/s
Maximum bit rate : 254 kb/s
Channel(s) : 2 channels
Channel positions : Front: L R
Sampling rate : 48.0 kHz
Frame rate : 46.875 FPS (1024 SPF)
Compression mode : Lossy
Stream size : 2.35 MiB (10%)
Source stream size : 2.35 MiB (10%)
Language : English
Encoded date : UTC 2018-01-28 04:21:43
Tagged date : UTC 2018-01-28 04:21:43
General
Complete name : E:\Видеоуроки по Movavi Video Suite\Как сделать видео для Instagram в Movavi Video Suite.mp4
Format : MPEG-4
Format profile : Base Media / Version 2
Codec ID : mp42 (mp42/isom)
File size : 217 MiB
Duration : 7 min 20 s
Overall bit rate mode : Constant
Overall bit rate : 4 128 kb/s
Encoded date : UTC 2018-02-18 04:18:41
Tagged date : UTC 2018-02-18 04:18:41
Video
ID : 2
Format : AVC
Format/Info : Advanced Video Codec
Format profile : Main@L3.1
Format settings : CABAC / 5 Ref Frames
Format settings, CABAC : Yes
Format settings, RefFrames : 5 frames
Format settings, GOP : M=3, N=24
Codec ID : avc1
Codec ID/Info : Advanced Video Coding
Duration : 7 min 20 s
Bit rate mode : Constant
Bit rate : 4 000 kb/s
Width : 1 280 pixels
Height : 720 pixels
Display aspect ratio : 16:9
Frame rate mode : Constant
Frame rate : 29.970 (30000/1001) FPS
Standard : NTSC
Color space : YUV
Chroma subsampling : 4:2:0
Bit depth : 8 bits
Scan type : Progressive
Bits/(Pixel*Frame) : 0.145
Stream size : 210 MiB (97%)
Language : English
Encoded date : UTC 2018-02-18 04:18:41
Tagged date : UTC 2018-02-18 04:18:41
Color range : Limited
Audio
ID : 1
Format : AAC
Format/Info : Advanced Audio Codec
Format profile : LC
Codec ID : mp4a-40-2
Duration : 7 min 20 s
Bit rate mode : Constant
Bit rate : 128 kb/s
Channel(s) : 2 channels
Channel positions : Front: L R
Sampling rate : 44.1 kHz
Frame rate : 43.066 FPS (1024 SPF)
Compression mode : Lossy
Stream size : 6.72 MiB (3%)
Language : English
Encoded date : UTC 2018-02-18 04:18:41
Tagged date : UTC 2018-02-18 04:18:41
General
Complete name : E:\Видеоуроки по Movavi Video Suite\Как сделать фото на весь экран в Movavi Video Suite.mp4
Format : MPEG-4
Format profile : Base Media / Version 2
Codec ID : mp42 (mp42/isom)
File size : 53.6 MiB
Duration : 1 min 49 s
Overall bit rate mode : Constant
Overall bit rate : 4 126 kb/s
Encoded date : UTC 2018-01-08 00:32:12
Tagged date : UTC 2018-01-08 00:32:12
Video
ID : 2
Format : AVC
Format/Info : Advanced Video Codec
Format profile : Main@L3.1
Format settings : CABAC / 5 Ref Frames
Format settings, CABAC : Yes
Format settings, RefFrames : 5 frames
Format settings, GOP : M=3, N=24
Codec ID : avc1
Codec ID/Info : Advanced Video Coding
Duration : 1 min 49 s
Bit rate mode : Constant
Bit rate : 4 000 kb/s
Width : 1 280 pixels
Height : 720 pixels
Display aspect ratio : 16:9
Frame rate mode : Constant
Frame rate : 29.970 (30000/1001) FPS
Standard : NTSC
Color space : YUV
Chroma subsampling : 4:2:0
Bit depth : 8 bits
Scan type : Progressive
Bits/(Pixel*Frame) : 0.145
Stream size : 51.9 MiB (97%)
Language : English
Encoded date : UTC 2018-01-08 00:32:12
Tagged date : UTC 2018-01-08 00:32:12
Color range : Limited
Audio
ID : 1
Format : AAC
Format/Info : Advanced Audio Codec
Format profile : LC
Codec ID : mp4a-40-2
Duration : 1 min 49 s
Bit rate mode : Constant
Bit rate : 128 kb/s
Channel(s) : 2 channels
Channel positions : Front: L R
Sampling rate : 44.1 kHz
Frame rate : 43.066 FPS (1024 SPF)
Compression mode : Lossy
Stream size : 1.66 MiB (3%)
Language : English
Encoded date : UTC 2018-01-08 00:32:12
Tagged date : UTC 2018-01-08 00:32:12
General
Complete name : E:\Видеоуроки по Movavi Video Suite\Как сделать хороший звук в Movavi Video Suite.mp4
Format : MPEG-4
Format profile : Base Media / Version 2
Codec ID : mp42 (mp42/isom)
File size : 132 MiB
Duration : 4 min 29 s
Overall bit rate mode : Constant
Overall bit rate : 4 126 kb/s
Encoded date : UTC 2018-02-07 09:55:21
Tagged date : UTC 2018-02-07 09:55:21
Video
ID : 2
Format : AVC
Format/Info : Advanced Video Codec
Format profile : Main@L3.1
Format settings : CABAC / 5 Ref Frames
Format settings, CABAC : Yes
Format settings, RefFrames : 5 frames
Format settings, GOP : M=3, N=24
Codec ID : avc1
Codec ID/Info : Advanced Video Coding
Duration : 4 min 29 s
Bit rate mode : Constant
Bit rate : 4 000 kb/s
Width : 1 280 pixels
Height : 720 pixels
Display aspect ratio : 16:9
Frame rate mode : Constant
Frame rate : 29.970 (30000/1001) FPS
Standard : NTSC
Color space : YUV
Chroma subsampling : 4:2:0
Bit depth : 8 bits
Scan type : Progressive
Bits/(Pixel*Frame) : 0.145
Stream size : 128 MiB (97%)
Language : English
Encoded date : UTC 2018-02-07 09:55:21
Tagged date : UTC 2018-02-07 09:55:21
Color range : Limited
Audio
ID : 1
Format : AAC
Format/Info : Advanced Audio Codec
Format profile : LC
Codec ID : mp4a-40-2
Duration : 4 min 29 s
Bit rate mode : Constant
Bit rate : 128 kb/s
Channel(s) : 2 channels
Channel positions : Front: L R
Sampling rate : 44.1 kHz
Frame rate : 43.066 FPS (1024 SPF)
Compression mode : Lossy
Stream size : 4.11 MiB (3%)
Language : English
Encoded date : UTC 2018-02-07 09:55:21
Tagged date : UTC 2018-02-07 09:55:21
General
Complete name : E:\Видеоуроки по Movavi Video Suite\Как сделать чёрные полосы в Movavi Video Suite 17.mp4
Format : MPEG-4
Format profile : Base Media / Version 2
Codec ID : mp42 (mp42/isom)
File size : 83.8 MiB
Duration : 2 min 50 s
Overall bit rate mode : Constant
Overall bit rate : 4 133 kb/s
Encoded date : UTC 2018-01-16 11:36:20
Tagged date : UTC 2018-01-16 11:36:20
Video
ID : 2
Format : AVC
Format/Info : Advanced Video Codec
Format profile : Main@L3.1
Format settings : CABAC / 5 Ref Frames
Format settings, CABAC : Yes
Format settings, RefFrames : 5 frames
Format settings, GOP : M=3, N=24
Codec ID : avc1
Codec ID/Info : Advanced Video Coding
Duration : 2 min 50 s
Bit rate mode : Constant
Bit rate : 4 000 kb/s
Width : 1 280 pixels
Height : 720 pixels
Display aspect ratio : 16:9
Frame rate mode : Constant
Frame rate : 29.970 (30000/1001) FPS
Standard : NTSC
Color space : YUV
Chroma subsampling : 4:2:0
Bit depth : 8 bits
Scan type : Progressive
Bits/(Pixel*Frame) : 0.145
Stream size : 81.1 MiB (97%)
Language : English
Encoded date : UTC 2018-01-16 11:36:20
Tagged date : UTC 2018-01-16 11:36:20
Color range : Limited
Audio
ID : 1
Format : AAC
Format/Info : Advanced Audio Codec
Format profile : LC
Codec ID : mp4a-40-2
Duration : 2 min 49 s
Bit rate mode : Constant
Bit rate : 128 kb/s
Channel(s) : 2 channels
Channel positions : Front: L R
Sampling rate : 44.1 kHz
Frame rate : 43.066 FPS (1024 SPF)
Compression mode : Lossy
Stream size : 2.60 MiB (3%)
Language : English
Encoded date : UTC 2018-01-16 11:36:20
Tagged date : UTC 2018-01-16 11:36:20
General
Complete name : E:\Видеоуроки по Movavi Video Suite\Как сделать эффект выплывающей картинки в Movavi Video Suite.mp4
Format : MPEG-4
Format profile : Base Media / Version 2
Codec ID : mp42 (mp42/isom)
File size : 105 MiB
Duration : 3 min 34 s
Overall bit rate mode : Constant
Overall bit rate : 4 132 kb/s
Encoded date : UTC 2018-01-21 09:45:25
Tagged date : UTC 2018-01-21 09:45:25
Video
ID : 2
Format : AVC
Format/Info : Advanced Video Codec
Format profile : Main@L3.1
Format settings : CABAC / 5 Ref Frames
Format settings, CABAC : Yes
Format settings, RefFrames : 5 frames
Format settings, GOP : M=3, N=24
Codec ID : avc1
Codec ID/Info : Advanced Video Coding
Duration : 3 min 34 s
Bit rate mode : Constant
Bit rate : 4 000 kb/s
Width : 1 280 pixels
Height : 720 pixels
Display aspect ratio : 16:9
Frame rate mode : Constant
Frame rate : 29.970 (30000/1001) FPS
Standard : NTSC
Color space : YUV
Chroma subsampling : 4:2:0
Bit depth : 8 bits
Scan type : Progressive
Bits/(Pixel*Frame) : 0.145
Stream size : 102 MiB (97%)
Language : English
Encoded date : UTC 2018-01-21 09:45:25
Tagged date : UTC 2018-01-21 09:45:25
Color range : Limited
Audio
ID : 1
Format : AAC
Format/Info : Advanced Audio Codec
Format profile : LC
Codec ID : mp4a-40-2
Duration : 3 min 34 s
Source duration : 3 min 34 s
Bit rate mode : Constant
Bit rate : 128 kb/s
Channel(s) : 2 channels
Channel positions : Front: L R
Sampling rate : 44.1 kHz
Frame rate : 43.066 FPS (1024 SPF)
Compression mode : Lossy
Stream size : 3.27 MiB (3%)
Source stream size : 3.27 MiB (3%)
Language : English
Encoded date : UTC 2018-01-21 09:45:25
Tagged date : UTC 2018-01-21 09:45:25
General
Complete name : E:\Видеоуроки по Movavi Video Suite\Как сохранить аудиофайл в Movavi Video Suite.mp4
Format : MPEG-4
Format profile : Base Media / Version 2
Codec ID : mp42 (mp42/isom)
File size : 73.3 MiB
Duration : 2 min 29 s
Overall bit rate mode : Constant
Overall bit rate : 4 124 kb/s
Encoded date : UTC 2018-02-05 09:46:15
Tagged date : UTC 2018-02-05 09:46:15
Video
ID : 2
Format : AVC
Format/Info : Advanced Video Codec
Format profile : Main@L3.1
Format settings : CABAC / 5 Ref Frames
Format settings, CABAC : Yes
Format settings, RefFrames : 5 frames
Format settings, GOP : M=3, N=24
Codec ID : avc1
Codec ID/Info : Advanced Video Coding
Duration : 2 min 29 s
Bit rate mode : Constant
Bit rate : 4 000 kb/s
Width : 1 280 pixels
Height : 720 pixels
Display aspect ratio : 16:9
Frame rate mode : Constant
Frame rate : 29.970 (30000/1001) FPS
Standard : NTSC
Color space : YUV
Chroma subsampling : 4:2:0
Bit depth : 8 bits
Scan type : Progressive
Bits/(Pixel*Frame) : 0.145
Stream size : 70.9 MiB (97%)
Language : English
Encoded date : UTC 2018-02-05 09:46:15
Tagged date : UTC 2018-02-05 09:46:15
Color range : Limited
Audio
ID : 1
Format : AAC
Format/Info : Advanced Audio Codec
Format profile : LC
Codec ID : mp4a-40-2
Duration : 2 min 29 s
Bit rate mode : Constant
Bit rate : 128 kb/s
Channel(s) : 2 channels
Channel positions : Front: L R
Sampling rate : 44.1 kHz
Frame rate : 43.066 FPS (1024 SPF)
Compression mode : Lossy
Stream size : 2.27 MiB (3%)
Language : English
Encoded date : UTC 2018-02-05 09:46:15
Tagged date : UTC 2018-02-05 09:46:15
General
Complete name : E:\Видеоуроки по Movavi Video Suite\Как убрать свой звук в Movavi Video Suite.mp4
Format : MPEG-4
Format profile : Base Media / Version 2
Codec ID : mp42 (mp42/isom)
File size : 72.4 MiB
Duration : 2 min 27 s
Overall bit rate mode : Constant
Overall bit rate : 4 132 kb/s
Encoded date : UTC 2018-01-30 09:40:34
Tagged date : UTC 2018-01-30 09:40:34
Video
ID : 2
Format : AVC
Format/Info : Advanced Video Codec
Format profile : Main@L3.1
Format settings : CABAC / 5 Ref Frames
Format settings, CABAC : Yes
Format settings, RefFrames : 5 frames
Format settings, GOP : M=3, N=24
Codec ID : avc1
Codec ID/Info : Advanced Video Coding
Duration : 2 min 27 s
Bit rate mode : Constant
Bit rate : 4 000 kb/s
Width : 1 280 pixels
Height : 720 pixels
Display aspect ratio : 16:9
Frame rate mode : Constant
Frame rate : 29.970 (30000/1001) FPS
Standard : NTSC
Color space : YUV
Chroma subsampling : 4:2:0
Bit depth : 8 bits
Scan type : Progressive
Bits/(Pixel*Frame) : 0.145
Stream size : 70.1 MiB (97%)
Language : English
Encoded date : UTC 2018-01-30 09:40:34
Tagged date : UTC 2018-01-30 09:40:34
Color range : Limited
Audio
ID : 1
Format : AAC
Format/Info : Advanced Audio Codec
Format profile : LC
Codec ID : mp4a-40-2
Duration : 2 min 27 s
Bit rate mode : Constant
Bit rate : 128 kb/s
Channel(s) : 2 channels
Channel positions : Front: L R
Sampling rate : 44.1 kHz
Frame rate : 43.066 FPS (1024 SPF)
Compression mode : Lossy
Stream size : 2.24 MiB (3%)
Language : English
Encoded date : UTC 2018-01-30 09:40:34
Tagged date : UTC 2018-01-30 09:40:34
General
Complete name : E:\Видеоуроки по Movavi Video Suite\Как убрать черные полосы в Movavi Video Suite (2 вариант).mp4
Format : MPEG-4
Format profile : Base Media / Version 2
Codec ID : mp42 (mp42/isom)
File size : 43.8 MiB
Duration : 1 min 29 s
Overall bit rate mode : Constant
Overall bit rate : 4 127 kb/s
Encoded date : UTC 2018-01-08 06:19:33
Tagged date : UTC 2018-01-08 06:19:33
Video
ID : 2
Format : AVC
Format/Info : Advanced Video Codec
Format profile : Main@L3.1
Format settings : CABAC / 5 Ref Frames
Format settings, CABAC : Yes
Format settings, RefFrames : 5 frames
Format settings, GOP : M=3, N=24
Codec ID : avc1
Codec ID/Info : Advanced Video Coding
Duration : 1 min 29 s
Bit rate mode : Constant
Bit rate : 4 000 kb/s
Width : 1 280 pixels
Height : 720 pixels
Display aspect ratio : 16:9
Frame rate mode : Constant
Frame rate : 29.970 (30000/1001) FPS
Standard : NTSC
Color space : YUV
Chroma subsampling : 4:2:0
Bit depth : 8 bits
Scan type : Progressive
Bits/(Pixel*Frame) : 0.145
Stream size : 42.4 MiB (97%)
Language : English
Encoded date : UTC 2018-01-08 06:19:33
Tagged date : UTC 2018-01-08 06:19:33
Color range : Limited
Audio
ID : 1
Format : AAC
Format/Info : Advanced Audio Codec
Format profile : LC
Codec ID : mp4a-40-2
Duration : 1 min 28 s
Bit rate mode : Constant
Bit rate : 128 kb/s
Channel(s) : 2 channels
Channel positions : Front: L R
Sampling rate : 44.1 kHz
Frame rate : 43.066 FPS (1024 SPF)
Compression mode : Lossy
Stream size : 1.36 MiB (3%)
Language : English
Encoded date : UTC 2018-01-08 06:19:33
Tagged date : UTC 2018-01-08 06:19:33
General
Complete name : E:\Видеоуроки по Movavi Video Suite\Каким кодеком лучше рендерить видео в Movavi Video Suite 17.mp4
Format : MPEG-4
Format profile : Base Media / Version 2
Codec ID : mp42 (mp42/isom)
File size : 134 MiB
Duration : 4 min 32 s
Overall bit rate mode : Constant
Overall bit rate : 4 129 kb/s
Encoded date : UTC 2018-01-18 09:51:55
Tagged date : UTC 2018-01-18 09:51:55
Video
ID : 2
Format : AVC
Format/Info : Advanced Video Codec
Format profile : Main@L3.1
Format settings : CABAC / 5 Ref Frames
Format settings, CABAC : Yes
Format settings, RefFrames : 5 frames
Format settings, GOP : M=3, N=24
Codec ID : avc1
Codec ID/Info : Advanced Video Coding
Duration : 4 min 32 s
Bit rate mode : Constant
Bit rate : 4 000 kb/s
Width : 1 280 pixels
Height : 720 pixels
Display aspect ratio : 16:9
Frame rate mode : Constant
Frame rate : 29.970 (30000/1001) FPS
Standard : NTSC
Color space : YUV
Chroma subsampling : 4:2:0
Bit depth : 8 bits
Scan type : Progressive
Bits/(Pixel*Frame) : 0.145
Stream size : 130 MiB (97%)
Language : English
Encoded date : UTC 2018-01-18 09:51:55
Tagged date : UTC 2018-01-18 09:51:55
Color range : Limited
Audio
ID : 1
Format : AAC
Format/Info : Advanced Audio Codec
Format profile : LC
Codec ID : mp4a-40-2
Duration : 4 min 31 s
Bit rate mode : Constant
Bit rate : 128 kb/s
Channel(s) : 2 channels
Channel positions : Front: L R
Sampling rate : 44.1 kHz
Frame rate : 43.066 FPS (1024 SPF)
Compression mode : Lossy
Stream size : 4.15 MiB (3%)
Language : English
Encoded date : UTC 2018-01-18 09:51:55
Tagged date : UTC 2018-01-18 09:51:55
General
Complete name : E:\Видеоуроки по Movavi Video Suite\Цветокоррекция видео в Movavi Video Suite 17.mp4
Format : MPEG-4
Format profile : Base Media / Version 2
Codec ID : mp42 (mp42/isom)
File size : 84.7 MiB
Duration : 2 min 52 s
Overall bit rate mode : Constant
Overall bit rate : 4 129 kb/s
Encoded date : UTC 2018-02-26 00:39:05
Tagged date : UTC 2018-02-26 00:39:05
Video
ID : 2
Format : AVC
Format/Info : Advanced Video Codec
Format profile : Main@L3.1
Format settings : CABAC / 5 Ref Frames
Format settings, CABAC : Yes
Format settings, RefFrames : 5 frames
Format settings, GOP : M=3, N=24
Codec ID : avc1
Codec ID/Info : Advanced Video Coding
Duration : 2 min 52 s
Bit rate mode : Constant
Bit rate : 4 000 kb/s
Width : 1 280 pixels
Height : 720 pixels
Display aspect ratio : 16:9
Frame rate mode : Constant
Frame rate : 29.970 (30000/1001) FPS
Standard : NTSC
Color space : YUV
Chroma subsampling : 4:2:0
Bit depth : 8 bits
Scan type : Progressive
Bits/(Pixel*Frame) : 0.145
Stream size : 82.0 MiB (97%)
Language : English
Encoded date : UTC 2018-02-26 00:39:05
Tagged date : UTC 2018-02-26 00:39:05
Color range : Limited
Audio
ID : 1
Format : AAC
Format/Info : Advanced Audio Codec
Format profile : LC
Codec ID : mp4a-40-2
Duration : 2 min 52 s
Bit rate mode : Constant
Bit rate : 128 kb/s
Channel(s) : 2 channels
Channel positions : Front: L R
Sampling rate : 44.1 kHz
Frame rate : 43.066 FPS (1024 SPF)
Compression mode : Lossy
Stream size : 2.63 MiB (3%)
Language : English
Encoded date : UTC 2018-02-26 00:39:05
Tagged date : UTC 2018-02-26 00:39:05
Скриншоты:
Скачать .torrent

Для того, чтобы скачать торрент-файл

Алексей Ларченко - Видеоуроки по Movavi Video Suite (2018)

с нашего сайта, Вам необходимо Войти на сайт под своим логином! Если у Вас ещё нет логина, тогда Вам нужно сначала Зарегистрироваться!

Как скачивать? · Что такое торрент? · Рейтинг и ограничения

Показать сообщения:    
Ответить на тему

Алексей Ларченко - Видеоуроки по Movavi Video Suite (2018) скачать торрент (torrent), видеоуроки, тренинги, обучающее видео и видеокурсы

Текущее время: Сегодня 21:25

Часовой пояс: GMT + 4



Вы не можете начинать темы
Вы не можете отвечать на сообщения
Вы не можете редактировать свои сообщения
Вы не можете удалять свои сообщения
Вы не можете голосовать в опросах
Вы не можете прикреплять файлы к сообщениям
Вы не можете скачивать файлы