Алина Гесс - Карта желаний (2018)

Ответить на тему
 
Автор Сообщение

Yulya ®

Алина Гесс | Карта желаний (2018) PCRec - Автор (режиссер): Алина Гесс
Оф. сайт: alina-guess.ru
Жанр: Эзотерика
Описание:
Карта Желаний – один из мощнейших способов, чтобы привлечь в свою жизнь то, о чем вы действительно мечтаете: идеальную внешность, хорошего мужа или жену, успех в работе, путешествия, квартиры и машины! Любая картинка может материализоваться в вашей жизни, если вы в это поверите и учтете правила создания Карты.
На тренинге мы освоим теорию: все правила работающей Карты Желаний.
Но, как показала практика, одной теории мало. Поэтому я на примерах покажу, какие фотографии можно использовать, а какие нельзя. И сделаю Карту Желаний по всем правилам прямо на ваших глазах.

По окончании курса Вы будете уметь:

В результате вы нучитесь создавать Карту своими ручками, которая будет сделана по всем правилам и будет отражать ваши истинные цели.

Программа тренинга:

Чтобы вы сделали Карту Желаний, которая действительно заработает, мы разберем следующие вопросы:
* Как правильно подбирать картинки для Карты Желаний.
* Как правильно определить и сформулировать желания.
* Можно ли помещать на Карту Желания другого человека, и как это делать правильно.
* Можно ли делать совместную Карту Желаний.
* Как правильно делить Карту на сектора. Подробно разберем каждый из 9 секторов.
* Какие желания можно размещать, а какие нельзя.
* Благоприятные дни для создания Карты Желаний.
* Все об активации Карты, и для чего она нужна.
* Как долго можно изготовлять Карту, как правильно хранить, какой у нее срок.
* Позитивные примеры исполнения желаний.
* Еще несколько секретов успешной Карты
Продолжительность: 07:15:02
Качество видео: PCRec
Видео: MPEG-4, 1280x720, 184 kbps
Аудио: AAC, 2 ch, 126 kbps

Mediainfo:

Код:
General
Complete name                            : C:\Алина-Гесс_Карта-желаний\А.Гесс - 03_Все секреты Карты Желаний (02.2018).mp4
Format                                   : MPEG-4
Format profile                           : Base Media
Codec ID                                 : isom
File size                                : 549 MiB
Duration                                 : 4h 4mn
Overall bit rate mode                    : Variable
Overall bit rate                         : 313 Kbps
Encoded date                             : UTC 2018-02-17 08:09:08
Tagged date                              : UTC 2018-02-17 08:09:08
Video
ID                                       : 1
Format                                   : AVC
Format/Info                              : Advanced Video Codec
Format profile                           : Main@L3.1
Format settings, CABAC                   : Yes
Format settings, ReFrames                : 3 frames
Codec ID                                 : avc1
Codec ID/Info                            : Advanced Video Coding
Duration                                 : 4h 4mn
Bit rate                                 : 184 Kbps
Width                                    : 1 280 pixels
Height                                   : 720 pixels
Display aspect ratio                     : 16:9
Frame rate mode                          : Constant
Frame rate                               : 30.000 fps
Color space                              : YUV
Chroma subsampling                       : 4:2:0
Bit depth                                : 8 bits
Scan type                                : Progressive
Bits/(Pixel*Frame)                       : 0.007
Stream size                              : 322 MiB (59%)
Title                                    : ISO Media file produced by Google Inc. Created on: 02/17/2018.
Encoded date                             : UTC 2018-02-17 14:48:16
Tagged date                              : UTC 2018-02-17 08:12:12
Color primaries                          : BT.709
Transfer characteristics                 : BT.709
Matrix coefficients                      : BT.709
Audio
ID                                       : 2
Format                                   : AAC
Format/Info                              : Advanced Audio Codec
Format profile                           : LC
Codec ID                                 : 40
Duration                                 : 4h 4mn
Bit rate mode                            : Variable
Bit rate                                 : 126 Kbps
Channel count                            : 2 channels
Channel positions                        : Front: L R
Sampling rate                            : 44.1 KHz
Compression mode                         : Lossy
Stream size                              : 220 MiB (40%)
Title                                    : ISO Media file produced by Google Inc. Created on: 02/17/2018.
Encoded date                             : UTC 2018-02-17 14:48:16
Tagged date                              : UTC 2018-02-17 08:12:12
Скриншоты:
Скачать .torrent

Для того, чтобы скачать торрент-файл

Алина Гесс - Карта желаний (2018)

с нашего сайта, Вам необходимо Войти на сайт под своим логином! Если у Вас ещё нет логина, тогда Вам нужно сначала Зарегистрироваться!

Как скачивать? · Что такое торрент? · Рейтинг и ограничения

Показать сообщения:    
Ответить на тему

Алина Гесс - Карта желаний (2018) скачать торрент (torrent), видеоуроки, тренинги, обучающее видео и видеокурсы

Текущее время: Сегодня 05:54

Часовой пояс: GMT + 4



Вы не можете начинать темы
Вы не можете отвечать на сообщения
Вы не можете редактировать свои сообщения
Вы не можете удалять свои сообщения
Вы не можете голосовать в опросах
Вы не можете прикреплять файлы к сообщениям
Вы не можете скачивать файлы