TheTunes.Ru - Взрывные ритмы в танцевалке (2014)

Ответить на тему
 
Автор Сообщение

Yulya ®

-TheTunes.Ru - Взрывные ритмы в танцевалке (2014)- Автор (режиссер): TheTunes.Ru
Жанр: Работа со звуком
Язык: Русский
Продолжительность: 56 файла по ~00:02:00-00:10:00
Качество видео: PCRec
Видеокодек: AVC/H.264
Битрейт видео: ~1500 Kbps, 30.000 fps
Размер кадра: 1920x1080, 16:9
Аудиокодек: AAC
Битрейт аудио: 192 Kbps, 2 channels, 44.1 KHz
Описание:
Создавайте мощные танцевальные ритмы, придавая треку современную насыщенность и заполненность!
Научитесь создавать мощные танцевальные ритмы.
Узнаете секреты, фишки и нюансы создания танцевальной перкуссии.
Добавите в свои треки больше кача и напора.
Научитесь грамотно заполнять свои треки перкуссией.
Ваши треки больше не будут "пустыми"
Под ваши треки будет хотеться танцевать!
Создание перкуссии в 4 актуальных танцевальных стилях

MediaInfo

General
Count : 284
Count of stream of this kind : 1
Kind of stream : General
Kind of stream : General
Stream identifier : 0
Inform : MPEG-4 (Base Media): 92.6 MiB, 8mn 7s
Count of video streams : 1
Count of audio streams : 1
Video_Format_List : AVC
Video_Format_WithHint_List : AVC
Codecs Video : AVC
Audio_Format_List : AAC
Audio_Format_WithHint_List : AAC
Audio codecs : AAC LC
Complete name : [TheTunes] Взрывные ритмы в танцевалке 2014/Раздел 3/3.1.mp4
Folder name : [TheTunes] Взрывные ритмы в танцевалке 2014/Раздел 3
File name : 3.1
File extension : mp4
Format : MPEG-4
Format : MPEG-4
Format/Extensions usually used : mp4 m4v m4a m4b m4p 3gpp 3gp 3gpp2 3g2 k3g jpm jpx mqv ismv isma f4v
Commercial name : MPEG-4
Format profile : Base Media
Internet media type : video/mp4
Codec ID : isom
Codec ID/Url : http://www.apple.com/quicktime/download/standalone.html
Codec : MPEG-4
Codec : MPEG-4
Codec/Extensions usually used : mp4 m4v m4a m4b m4p 3gpp 3gp 3gpp2 3g2 k3g jpm jpx mqv ismv isma f4v
File size : 97140080
File size : 92.6 MiB
File size : 93 MiB
File size : 93 MiB
File size : 92.6 MiB
File size : 92.64 MiB
Duration : 487234
Duration : 8mn 7s
Duration : 8mn 7s 234ms
Duration : 8mn 7s
Duration : 00:08:07.234
Overall bit rate : 1594964
Overall bit rate : 1 595 Kbps
Stream size : 530889
Stream size : 518 KiB (1%)
Stream size : 518 KiB
Stream size : 518 KiB
Stream size : 518 KiB
Stream size : 518.4 KiB
Stream size : 518 KiB (1%)
Proportion of this stream : 0.00547
HeaderSize : 40
DataSize : 96609199
FooterSize : 530841
IsStreamable : No
File last modification date : UTC 2014-11-14 16:06:54
File last modification date (local) : 2014-11-14 19:06:54
Writing application : Lavf55.42.100
Video
Count : 277
Count of stream of this kind : 1
Kind of stream : Video
Kind of stream : Video
Stream identifier : 0
StreamOrder : 0
Inform : 1 347 Kbps, 1920*1080 (16:9), at 30.000 fps, AVC (Main@L5.0) (CABAC / 5 Ref Frames)
ID : 1
ID : 1
Format : AVC
Format/Info : Advanced Video Codec
Format/Url : http://developers.videolan.org/x264.html
Commercial name : AVC
Format profile : [url=mailto:Main@L5.0]Main@L5.0[/url]
Format settings : CABAC / 5 Ref Frames
Format settings, CABAC : Yes
Format settings, CABAC : Yes
Format settings, ReFrames : 5
Format settings, ReFrames : 5 frames
Format settings, GOP : M=4, N=25
Internet media type : video/H264
Codec ID : avc1
Codec ID/Info : Advanced Video Coding
Codec ID/Url : http://www.apple.com/quicktime/download/standalone.html
Codec : AVC
Codec : AVC
Codec/Family : AVC
Codec/Info : Advanced Video Codec
Codec/Url : http://developers.videolan.org/x264.html
Codec/CC : avc1
Codec profile : [url=mailto:Main@L5.0]Main@L5.0[/url]
Codec settings : CABAC / 5 Ref Frames
Codec settings, CABAC : Yes
Codec_Settings_RefFrames : 5
Duration : 487234
Duration : 8mn 7s
Duration : 8mn 7s 234ms
Duration : 8mn 7s
Duration : 00:08:07.234
Bit rate : 1346587
Bit rate : 1 347 Kbps
Width : 1920
Width : 1 920 pixels
Height : 1080
Height : 1 080 pixels
Pixel aspect ratio : 1.000
Display aspect ratio : 1.778
Display aspect ratio : 16:9
Rotation : 0.000
Frame rate mode : CFR
Frame rate mode : Constant
Frame rate : 30.000
Frame rate : 30.000 fps
Frame count : 14617
Resolution : 8
Resolution : 8 bits
Colorimetry : 4:2:0
Color space : YUV
Chroma subsampling : 4:2:0
Bit depth : 8
Bit depth : 8 bits
Scan type : Progressive
Scan type : Progressive
Interlacement : PPF
Interlacement : Progressive
Bits/(Pixel*Frame) : 0.022
Stream size : 82012760
Stream size : 78.2 MiB (84%)
Stream size : 78 MiB
Stream size : 78 MiB
Stream size : 78.2 MiB
Stream size : 78.21 MiB
Stream size : 78.2 MiB (84%)
Proportion of this stream : 0.84427
Audio
Count : 222
Count of stream of this kind : 1
Kind of stream : Audio
Kind of stream : Audio
Stream identifier : 0
StreamOrder : 1
Inform : 240 Kbps, 44.1 KHz, 2 channels, AAC (LC)
ID : 2
ID : 2
Format : AAC
Format/Info : Advanced Audio Codec
Commercial name : AAC
Format profile : LC
Codec ID : 40
Codec : AAC LC
Codec : AAC LC
Codec/Family : AAC
Codec/CC : 40
Duration : 487225
Duration : 8mn 7s
Duration : 8mn 7s 225ms
Duration : 8mn 7s
Duration : 00:08:07.225
Bit rate mode : CBR
Bit rate mode : Constant
Bit rate : 239666
Bit rate : 240 Kbps
Channel(s) : 2
Channel(s) : 2 channels
Channel positions : Front: L R
Channel positions : 2/0/0
ChannelLayout : L R
Sampling rate : 44100
Sampling rate : 44.1 KHz
Samples count : 21486622
Frame count : 20983
Compression mode : Lossy
Compression mode : Lossy
Stream size : 14596431
Stream size : 13.9 MiB (15%)
Stream size : 14 MiB
Stream size : 14 MiB
Stream size : 13.9 MiB
Stream size : 13.92 MiB
Stream size : 13.9 MiB (15%)
Proportion of this stream : 0.15026
Скриншоты:
Скачать .torrent

Для того, чтобы скачать торрент-файл

TheTunes.Ru - Взрывные ритмы в танцевалке (2014)

с нашего сайта, Вам необходимо Войти на сайт под своим логином! Если у Вас ещё нет логина, тогда Вам нужно сначала Зарегистрироваться!

Как скачивать? · Что такое торрент? · Рейтинг и ограничения

Показать сообщения:    
Ответить на тему

TheTunes.Ru - Взрывные ритмы в танцевалке (2014) скачать торрент (torrent), видеоуроки, тренинги, обучающее видео и видеокурсы

Текущее время: Сегодня 10:09

Часовой пояс: GMT + 4



Вы не можете начинать темы
Вы не можете отвечать на сообщения
Вы не можете редактировать свои сообщения
Вы не можете удалять свои сообщения
Вы не можете голосовать в опросах
Вы не можете прикреплять файлы к сообщениям
Вы не можете скачивать файлы