Ефим Шевченко - Эмоциональный портрет (2014)

Ответить на тему
 
Автор Сообщение

Yulya ®

-Ефим Шевченко - Эмоциональный портрет (2014)- Автор (режиссер): Ефим Шевченко
Жанр: Обучающее видео
Продолжительность: 00:51:47
Качество видео: CamRip
Видеокодек: XVID
Битрейт видео: ~4 590 Kbps
Размер кадра: 1920x1080
Аудиокодек: MP3
Битрейт аудио: 320kbps
Описание:
Ефим Шевченко - 2х метровый бородатый еврей с отличным чувством юмора, своим взглядом на фотографию и обработку, записал авторский видеокурс, посвященный портрету и эмоциям в портрете!
Чему Вы научитесь:
- Четыре вида композиции: Геометрическая, цветовая, световая, информационная.
- Основные правила и методы в построении эмоционального лицевого портрета.
- Строение кадра, блокаторы, линии и др, для создания гармоничтой фотографии.
- Живая подача информации поможет Вам легко использовать увиденные приемы.
- Создавать объем, расставлять композиционные акценты в лицевом портрете.
- Подробная работа с мимикой модели поможет находить нужные "рычаги" для создания эмоций.

MediaInfo:

General
Complete name : .....\Ефим Шевченко - Эмоциональный портрет (2014).avi
Format : AVI
Format/Info : Audio Video Interleave
Format profile : OpenDML
File size : 1.66 GiB
Duration : 51mn 46s
Overall bit rate : 4 590 Kbps
TCOD : 0
TCDO : 31067703333
Video
ID : 0
Format : MPEG-4 Visual
Format profile : Advanced Simple@L5
Format settings, BVOP : Yes
Format settings, QPel : No
Format settings, GMC : No warppoints
Format settings, Matrix : Default (H.263)
Codec ID : XVID
Codec ID/Hint : XviD
Duration : 51mn 46s
Bit rate : 4 176 Kbps
Width : 1 920 pixels
Height : 1 080 pixels
Display aspect ratio : 16:9
Frame rate : 29.970 fps
Color space : YUV
Chroma subsampling : 4:2:0
Bit depth : 8 bits
Scan type : Progressive
Compression mode : Lossy
Bits/(Pixel*Frame) : 0.067
Stream size : 1.51 GiB (91%)
Writing library : XviD 64
Audio
ID : 1
Format : MPEG Audio
Format version : Version 1
Format profile : Layer 3
Mode : Joint stereo
Codec ID : 55
Codec ID/Hint : MP3
Duration : 51mn 46s
Bit rate mode : Constant
Bit rate : 320 Kbps
Channel count : 2 channels
Sampling rate : 48.0 KHz
Compression mode : Lossy
Stream size : 119 MiB (7%)
Alignment : Aligned on interleaves
Interleave, duration : 250 ms (7.49 video frames)
Interleave, preload duration : 264 ms
Скриншоты:
Скачать .torrent

Для того, чтобы скачать торрент-файл

Ефим Шевченко - Эмоциональный портрет (2014)

с нашего сайта, Вам необходимо Войти на сайт под своим логином! Если у Вас ещё нет логина, тогда Вам нужно сначала Зарегистрироваться!

Как скачивать? · Что такое торрент? · Рейтинг и ограничения

Показать сообщения:    
Ответить на тему

Ефим Шевченко - Эмоциональный портрет (2014) скачать торрент (torrent), видеоуроки, тренинги, обучающее видео и видеокурсы

Текущее время: Сегодня 00:17

Часовой пояс: GMT + 4



Вы не можете начинать темы
Вы не можете отвечать на сообщения
Вы не можете редактировать свои сообщения
Вы не можете удалять свои сообщения
Вы не можете голосовать в опросах
Вы не можете прикреплять файлы к сообщениям
Вы не можете скачивать файлы