Марат Сафин - Продвижение фотографа в Вконтакте (2016)

Ответить на тему
 
Автор Сообщение

Yulya ®

Марат Сафин | Продвижение фотографа в Вконтакте (2016) PCRec - Автор (режиссер): Марат Сафин
Жанр: Фото, Маркетинг
Описание:
Марат Сафин — один из лучших специалистов по продвижению в VK, фотограф, путешественник.
Фотографией Марат увлекается с 2006 года, в 2010 это стало не только хобби, но и профессиональной деятельностью. За эти годы он попробовал себя в различных сферах фотобизнеса: от коммерческой-свадебной съемки и съемки для журналов до продажи своих творческих работ иностранным издательствам и преподавания.
Также автор курса приобрел огромный опыт в сфере маркетинга и PR-технологий. Марат занимается преподаванием уже 6 лет, является создателем нескольких учебных программ, провел около 200 мастер-классов в более чем 90 городах России, Украины, Беларуси и Казахстана. За это время обучение прошли 3500 человек.
Учебный курс "Продвижение фотографа в ВКонтакте" направлен на формирование и закрепление навыков качественной и продуктивной работы в социальной сети VK.
Вы сделаете уверенный шаг к успешному продвижению себя как профессионала своего дела. Опыт, к которому автор шел годами экспериментов, вы сможете получить за несколько часов. Все методы, рассмотренные в курсе, — исключительно практические. Здесь нет воды — только настоящая живая практика работы в социальных сетях.

О курсе

Чему Вы научитесь
Вы посмотрите на ВКонтакте глазами опытного фотографа, научитесь тонкостям продвижения в этой социальной сети, научитесь искать потенциальных клиентов и работать с ними, узнаете о всех возможностях, которые предоставляет VK. Вы получите уникальные авторские наработки для совершенствования своей деятельности в ВКонтакте.
Преимущество курса
3 академических часа, насыщенных и информативных
35 эффективных уроков, рассказанных доступным языком
Конспекты занятий
Вы сможете посмотреть уроки в любое удобное для Вас время, в любом удобном месте
Четкая, структурированная подача материала
Обратная связь с автором курса
Для кого этот курс
Этот курс ориентирован на самую широкую аудиторию. Особенно эти знания пригодятся фотографам, которые хотят увеличить активность своих страниц, сообществ в ВКонтакте и которые хотят находить клиентов в этой социальной сети.
Продолжительность: 02:50:16
Качество видео: PCRec
Видео: MPEG-4, 1920x1200, ~2152 kb/s
Аудио: AAC, 2 ch, 318 kb/s

Mediainfo:

Format                      : MPEG-4
Format profile : Base Media / Version 2
Codec ID : mp42 (isom/mp42)
File size : 29.0 MiB
Duration : 1mn 41s
Overall bit rate mode : Variable
Overall bit rate : 2 387 Kbps
Movie name : U001.
Encoded date : UTC 2016-02-15 15:30:21
Tagged date : UTC 2016-02-15 15:30:21
Video
ID : 1
Format : AVC
Format/Info : Advanced Video Codec
Format profile : Baseline@L5
Format settings, CABAC : No
Format settings, ReFrames : 3 frames
Codec ID : avc1
Codec ID/Info : Advanced Video Coding
Duration : 1mn 41s
Source duration : 1mn 41s
Bit rate : 2 067 Kbps
Width : 1 920 pixels
Height : 1 200 pixels
Display aspect ratio : 16:10
Frame rate mode : Variable
Frame rate : 30.000 fps
Minimum frame rate : 30.000 fps
Maximum frame rate : 30.030 fps
Standard : NTSC
Color space : YUV
Chroma subsampling : 4:2:0
Bit depth : 8 bits
Scan type : Progressive
Bits/(Pixel*Frame) : 0.030
Stream size : 25.1 MiB (87%)
Source stream size : 25.1 MiB (87%)
Language : English
Encoded date : UTC 2016-02-15 15:30:21
Tagged date : UTC 2016-02-15 15:30:21
Color range : Limited
mdhd_Duration : 101800
Audio
ID : 2
Format : AAC
Format/Info : Advanced Audio Codec
Format profile : LC
Codec ID : 40
Duration : 1mn 41s
Source duration : 1mn 41s
Bit rate mode : Variable
Bit rate : 318 Kbps
Maximum bit rate : 367 Kbps
Channel(s) : 2 channels
Channel positions : Front: L R
Sampling rate : 44.1 KHz
Frame rate : 43.066 fps (1024 spf)
Compression mode : Lossy
Stream size : 3.86 MiB (13%)
Source stream size : 3.86 MiB (13%)
Language : English
Encoded date : UTC 2016-02-15 15:30:21
Tagged date : UTC 2016-02-15 15:30:21
mdhd_Duration : 101843
Скриншоты:
Скачать .torrent

Для того, чтобы скачать торрент-файл

Марат Сафин - Продвижение фотографа в Вконтакте (2016)

с нашего сайта, Вам необходимо Войти на сайт под своим логином! Если у Вас ещё нет логина, тогда Вам нужно сначала Зарегистрироваться!

Как скачивать? · Что такое торрент? · Рейтинг и ограничения

Показать сообщения:    
Ответить на тему

Марат Сафин - Продвижение фотографа в Вконтакте (2016) скачать торрент (torrent), видеоуроки, тренинги, обучающее видео и видеокурсы

Текущее время: Сегодня 23:45

Часовой пояс: GMT + 4



Вы не можете начинать темы
Вы не можете отвечать на сообщения
Вы не можете редактировать свои сообщения
Вы не можете удалять свои сообщения
Вы не можете голосовать в опросах
Вы не можете прикреплять файлы к сообщениям
Вы не можете скачивать файлы