Сергей Елисеев - Cиcтeмнaя тopгoвля oпциoнaми FОRТS (2014)

Ответить на тему
 
Автор Сообщение

Yulya ®

Сергей Елисеев | Cиcтeмнaя тopгoвля oпциoнaми FОRТS (2014) PCRec - Автор (режиссер): Сергей Елисеев
Жанр: Трейдинг,опционные контракты
Описание:
Уникальный авторский онлайн курс Сергея Елисеева — опытного опционного трейдера, доверительного управляющего, руководителя команды LAFT (проект Option-lab), автора публикаций по опционной тематике журнала F&O, участника рабочих групп по опционам и комитета срочного рынка Московской Биржи.
Курс обучения состоит из 10 тем занятий по темам:
-Терминология опционной торговли. Модели ценообразования опционов.
-Использование аналитических возможностей Option-lab.
-Кривые волатильности. Греки, анализ, применение.
-Направленные стратегии. Покупка, продажа опционов. Вертикальные спреды. Ратио спреды.
-Рыночно "нейтральные" стратегии. Стреддлы, стренглы, железный кондор, бабочки.
-Календарные стратегии. Практика торговли
-Управление опционными стратегиями. Money и risk менеджмент в опционной торговле.
-Разработка торгового плана. Оценка рыночных сценариев. Стресс тесты.
-Боевые опционные стратегии Forts. Торговые условия. Динамика изменения кривых волатильности и открытого интереса OI.
-Торговля опционными стратегиями в Option-lab Trade. Арбитражные стратегии на опционах. Практика арбитража.
Продолжительность: 17:10:33
Качество видео: PCRec
Видео: AVC/H.264, 1272x694, ~1180kbps
Аудио: AAC, 2 ch, 53kbps

Mediainfo:

Video: MPEG4 Video (H264)  15fps  [V: Video Media Handler [eng] (h264 high L4.0, yuv420p, 1272x694, 1180 kb/s)]
Audio: AAC 44100Hz stereo 53kbps [A: Sound Media Handler [eng] (aac lc, 44100 Hz, stereo, 53 kb/s)]
Format : MPEG-4
Format profile : Base Media / Version 2
Codec ID : mp42 (M4V /mp42/isom)
File size : 1 013 MiB
Duration : 1 h 54 min
Overall bit rate : 1 236 kb/s
Encoded date : UTC 2014-03-03 12:19:55
Tagged date : UTC 2014-03-03 12:19:55
Video
ID : 1
Format : AVC
Format/Info : Advanced Video Codec
Format profile : High@L4
Format settings, CABAC : Yes
Format settings, ReFrames : 4 frames
Format settings, GOP : M=1, N=75
Codec ID : avc1
Codec ID/Info : Advanced Video Coding
Duration : 1 h 54 min
Source duration : 1 h 54 min
Bit rate : 1 181 kb/s
Width : 1 272 pixels
Height : 694 pixels
Display aspect ratio : 1.85:1
Frame rate mode : Constant
Frame rate : 15.000 FPS
Color space : YUV
Chroma subsampling : 4:2:0
Bit depth : 8 bits
Scan type : Progressive
Bits/(Pixel*Frame) : 0.089
Stream size : 968 MiB (95%)
Source stream size : 968 MiB (95%)
Language : English
Encoded date : UTC 2014-03-03 12:19:55
Tagged date : UTC 2014-03-03 12:19:55
Color range : Limited
Color primaries : BT.709
Transfer characteristics : BT.709
Matrix coefficients : BT.709
mdhd_Duration : 6884407
Audio
ID : 2
Format : AAC
Format/Info : Advanced Audio Codec
Format profile : LC
Codec ID : 40
Duration : 1 h 54 min
Source duration : 1 h 54 min
Bit rate mode : Constant
Bit rate : 53.4 kb/s
Channel(s) : 2 channels
Channel positions : Front: L R
Sampling rate : 44.1 kHz
Frame rate : 43.066 FPS (1024 spf)
Compression mode : Lossy
Stream size : 43.9 MiB (4%)
Source stream size : 43.9 MiB (4%)
Language : English
Encoded date : UTC 2014-03-03 12:19:55
Tagged date : UTC 2014-03-03 12:19:55
mdhd_Duration : 6897728
Скриншоты:
Скачать .torrent

Для того, чтобы скачать торрент-файл

Сергей Елисеев - Cиcтeмнaя тopгoвля oпциoнaми FОRТS (2014)

с нашего сайта, Вам необходимо Войти на сайт под своим логином! Если у Вас ещё нет логина, тогда Вам нужно сначала Зарегистрироваться!

Как скачивать? · Что такое торрент? · Рейтинг и ограничения

Показать сообщения:    
Ответить на тему

Сергей Елисеев - Cиcтeмнaя тopгoвля oпциoнaми FОRТS (2014) скачать торрент (torrent), видеоуроки, тренинги, обучающее видео и видеокурсы

Текущее время: Сегодня 08:24

Часовой пояс: GMT + 4



Вы не можете начинать темы
Вы не можете отвечать на сообщения
Вы не можете редактировать свои сообщения
Вы не можете удалять свои сообщения
Вы не можете голосовать в опросах
Вы не можете прикреплять файлы к сообщениям
Вы не можете скачивать файлы